<?xml version="1.0" standalone="no"?>
<!DOCTYPE svg PUBLIC "-//W3C//DTD SVG 1.1//EN" "http://www.w3.org/Graphics/SVG/1.1/DTD/svg11.dtd" >
<svg>
<metadata>
Created by FontForge 20090914 at Wed Mar 11 16:33:40 2015
 By www-data
Copyright (c) 2013 Wizards of the Coast, a Hasbro Subsidiary. All rights reserved.
</metadata>
<defs>
<font id="Beleren-Bold" horiz-adv-x="1269" >
  <font-face 
    font-family="Beleren"
    font-weight="700"
    font-stretch="normal"
    units-per-em="2048"
    panose-1="2 0 8 3 0 0 0 2 0 4"
    ascent="1638"
    descent="-410"
    x-height="1024"
    cap-height="1434"
    bbox="-125 -512.001 2005 1917"
    underline-thickness="102"
    underline-position="-102"
    unicode-range="U+000D-U+FB04"
  />
<missing-glyph horiz-adv-x="748" 
d="M68 0v1365h544v-1365h-544zM136 68h408v1229h-408v-1229z" />
    <glyph glyph-name="uniFB03" unicode="ffi" horiz-adv-x="2035" 
d="M31 901l-0.00195312 8.00195c35.333 20.667 60.833 36 76.5 46s32.834 23.5 51.501 40.5s32.667 35.167 42 54.5s17.333 43.333 24 72c7.33301 30.667 17.666 59.167 30.999 85.5s27.833 49.333 43.5 69s34.834 37.667 57.501 54s44.334 30 65.001 41
s45.5 21.167 74.5 30.5s54.5 16.5 76.5 21.5s49.167 9.66699 81.5 14s58.666 7.5 78.999 9.5s46.166 4.33301 77.499 7l-23 -319h-8c-23.333 51.333 -50.833 90 -82.5 116s-63.5 39 -95.5 39c-34 0 -59.167 -13.5 -75.5 -40.5s-24.5 -72.833 -24.5 -137.5v-88h270
c27.333 0 50.5 2.83301 69.5 8.5s33.333 14.334 43 26.001s16.334 21.667 20.001 30s7.16699 19.5 10.5 33.5c8.66699 37.333 20.167 72 34.5 104s29.5 59.833 45.5 83.5s35.333 45.167 58 64.5s44.167 35.5 64.5 48.5s44.833 24.833 73.5 35.5s53.834 19 75.501 25
s48.167 11.333 79.5 16s57.166 8 77.499 10s46.166 4.33301 77.499 7l-22 -320h-9c-23.333 51.333 -50.833 90.166 -82.5 116.499s-63.5 39.5 -95.5 39.5c-34 0 -59.167 -13.5 -75.5 -40.5s-24.5 -72.833 -24.5 -137.5v-150h690v-768c0 -86 6.5 -144.667 19.5 -176
s44.167 -55.333 93.5 -72v-8h-410v901h-393v-625c0 -39.333 2.83301 -73.333 8.5 -102s12.834 -51.834 21.501 -69.501s21.167 -33 37.5 -46s32 -22.667 47 -29s34.833 -13.5 59.5 -21.5v-8h-471v901h-393v-625c0 -39.333 2.83301 -73.333 8.5 -102
s12.834 -51.834 21.501 -69.501s21.167 -33 37.5 -46s32 -22.667 47 -29s34.833 -13.5 59.5 -21.5v-8h-584v8l113 70v823h-174zM1534 1315v8l197 193h8l196 -193v-8c-28 -10 -64.167 -37.167 -108.5 -81.5s-73.5 -81.5 -87.5 -111.5h-8c-14 30 -43.333 67.167 -88 111.5
s-81 71.5 -109 81.5z" />
    <glyph glyph-name="uniFB04" unicode="ffl" horiz-adv-x="2035" 
d="M31 901l-0.000976562 7.99707c35.333 20.667 60.833 36 76.5 46s32.834 23.5 51.501 40.5s32.667 35.167 42 54.5s17.333 43.333 24 72c7.33301 30.667 17.666 59.167 30.999 85.5s27.833 49.333 43.5 69s34.834 37.667 57.501 54s44.334 30 65.001 41
s45.5 21.167 74.5 30.5s54.5 16.5 76.5 21.5s49.167 9.66699 81.5 14s58.666 7.5 78.999 9.5s46.166 4.33301 77.499 7l-23 -319h-8c-23.333 51.333 -50.833 90 -82.5 116s-63.5 39 -95.5 39c-34 0 -59.167 -13.5 -75.5 -40.5s-24.5 -72.833 -24.5 -137.5v-88h270
c27.333 0 50.5 2.83301 69.5 8.5s33.333 14.334 43 26.001s16.334 21.667 20.001 30s7.16699 19.5 10.5 33.5c13.333 56.667 32.333 106.5 57 149.5s55.167 78.667 91.5 107s75 51.833 116 70.5s88.667 32.667 143 42s107.166 15.833 158.499 19.5s110 5.5 176 5.5h235
v-1260c0 -87.333 7.16699 -146.666 21.5 -177.999s44.833 -54.666 91.5 -69.999v-8h-410v1167c0 74 -14.833 123.333 -44.5 148s-74.167 37 -133.5 37c-36.667 0 -67.667 -3 -93 -9s-48.5 -17 -69.5 -33s-36.667 -39 -47 -69s-15.5 -67.667 -15.5 -113v-104h299v-8
l-162 -115h-137v-645c0 -55.333 6.83301 -99.666 20.5 -132.999s32 -57.833 55 -73.5s55.833 -29.5 98.5 -41.5v-8h-471v901h-393v-625c0 -39.333 2.83301 -73.333 8.5 -102s12.834 -51.834 21.501 -69.501s21.167 -33 37.5 -46s32 -22.667 47 -29s34.833 -13.5 59.5 -21.5
v-8h-584v8l113 70v823h-174z" />
    <glyph glyph-name=".notdef" horiz-adv-x="748" 
d="M68 0v1365h544v-1365h-544zM136 68h408v1229h-408v-1229z" />
    <glyph glyph-name="glyph1" horiz-adv-x="2048" 
 />
    <glyph glyph-name="glyph1" horiz-adv-x="2048" 
 />
    <glyph glyph-name="uni000D" unicode="&#xd;" horiz-adv-x="2048" 
 />
    <glyph glyph-name="space" unicode=" " horiz-adv-x="491" 
 />
    <glyph glyph-name="exclam" unicode="!" horiz-adv-x="606" 
d="M102 172v8c28 10 64.333 37.167 109 81.5s74 81.5 88 111.5h8c14 -30 43.333 -67.167 88 -111.5s81 -71.5 109 -81.5v-8l-197 -192h-8zM145 1434h318l-62 -775l-94 -237h-8l-94 237z" />
    <glyph glyph-name="quotedbl" unicode="&#x22;" horiz-adv-x="829" 
d="M102 1516h236l-41 -406l-72 -168h-8l-74 168zM492 1516h235l-41 -406l-72 -168h-8l-74 168z" />
    <glyph glyph-name="numbersign" unicode="#" 
d="M123 395v205h219l57 205h-276v205h332l123 444h157l-123 -444h205l123 444h158l-123 -444h172v-205h-227l-58 -205h285v-205h-340l-115 -415h-157l114 415h-205l-114 -415h-158l115 415h-164zM500 600h205l57 205h-205z" />
    <glyph glyph-name="dollar" unicode="$" horiz-adv-x="927" 
d="M82 981c0 86.667 28.1592 156.665 84.4922 209.998s131.166 85 224.499 95l74 320h10l76 -324c84 -12 157 -35.333 219 -70l-27 -297h-8c-24 90 -57.5 161.333 -100.5 214s-96.167 79 -159.5 79c-42.667 0 -76.167 -12 -100.5 -36s-36.5 -55.667 -36.5 -95
c0 -30 9.5 -58.167 28.5 -84.5s43.833 -50 74.5 -71s64.334 -42.333 101.001 -64s73.334 -45.167 110.001 -70.5s70.334 -52.833 101.001 -82.5s55.5 -65.667 74.5 -108s28.5 -88.833 28.5 -139.5c0 -80.667 -28 -147.334 -84 -200.001s-129.667 -87 -221 -103l-76 -324h-10
l-74 313c-105.333 6 -203.666 34 -294.999 84l25 301h8c12.667 -40 27.334 -76.667 44.001 -110s36.667 -65.166 60 -95.499s51.166 -54.166 83.499 -71.499s67.5 -26 105.5 -26c46.667 0 84.667 13.333 114 40s44 64 44 112c0 32.667 -9.16699 63.167 -27.5 91.5
s-42.166 53.333 -71.499 75s-61.666 43.334 -96.999 65.001s-70.666 44.5 -105.999 68.5s-67.666 49.667 -96.999 77s-53.166 60.5 -71.499 99.5s-27.5 81.5 -27.5 127.5z" />
    <glyph glyph-name="percent" unicode="%" horiz-adv-x="1761" 
d="M72 1032c0 131.333 32.833 234.5 98.5 309.5s148.167 112.5 247.5 112.5s181.833 -37.5 247.5 -112.5s98.5 -178.167 98.5 -309.5s-32.833 -234.5 -98.5 -309.5s-148.167 -112.5 -247.5 -112.5s-181.833 37.5 -247.5 112.5s-98.5 178.167 -98.5 309.5zM283 1032
c0 -57.333 1.66699 -105 5 -143s9.66602 -72.833 18.999 -104.5s23.166 -55 41.499 -70s41.5 -22.5 69.5 -22.5s51.167 7.5 69.5 22.5s32.166 38.333 41.499 70s15.666 66.5 18.999 104.5s5 85.667 5 143s-1.66699 105 -5 143s-9.66602 72.833 -18.999 104.5
s-23.166 55 -41.499 70s-41.5 22.5 -69.5 22.5s-51.167 -7.5 -69.5 -22.5s-32.166 -38.333 -41.499 -70s-15.666 -66.5 -18.999 -104.5s-5 -85.667 -5 -143zM328 6l942 1428h166l2 -7l-942 -1427h-166zM997 401c0 131.333 32.833 234.5 98.5 309.5
s148.167 112.5 247.5 112.5s182 -37.5 248 -112.5s99 -178.167 99 -309.5s-33 -234.333 -99 -309s-148.667 -112 -248 -112s-181.833 37.333 -247.5 112s-98.5 177.667 -98.5 309zM1208 401c0 -57.333 1.66699 -104.996 5 -142.996s9.66602 -72.833 18.999 -104.5
s23.166 -55 41.499 -70s41.5 -22.5 69.5 -22.5s51.167 7.5 69.5 22.5s32.333 38.167 42 69.5s16.167 66.166 19.5 104.499s5 86.166 5 143.499s-1.66699 105.166 -5 143.499s-9.83301 73.166 -19.5 104.499s-23.667 54.5 -42 69.5s-41.5 22.5 -69.5 22.5
s-51.167 -7.5 -69.5 -22.5s-32.166 -38.333 -41.499 -70s-15.666 -66.5 -18.999 -104.5s-5 -85.667 -5 -143z" />
    <glyph glyph-name="ampersand" unicode="&#x26;" horiz-adv-x="1290" 
d="M72 389c0 98 25.168 181.166 75.501 249.499s115.166 119.833 194.499 154.5l-8 12c-79.333 106.667 -119 203 -119 289c0 78 31.5 144.5 94.5 199.5s149.5 82.5 259.5 82.5c66 0 130.167 -11.5 192.5 -34.5s117.166 -51.833 164.499 -86.5l-138 -241l-6 2
c0 77.333 -17.333 138 -52 182s-82.667 66 -144 66c-40 0 -72.833 -12.167 -98.5 -36.5s-38.5 -53.833 -38.5 -88.5c0 -14.667 1.33301 -28 4 -40s9.33398 -26.833 20.001 -44.5s18.834 -30.667 24.501 -39s19 -26.166 40 -53.499l44.5 -59l415 -549
c16.667 24 25 59.667 25 107c0 60 -14.333 111.5 -43 154.5s-71 74.167 -127 93.5v8h346c-2.66699 -182 -48.334 -331.667 -137.001 -449l199 -262l-5 -6h-321l-60 80c-52 -33.333 -105.5 -58.333 -160.5 -75s-118.833 -25 -191.5 -25c-134 0 -242.5 36 -325.5 108
s-124.5 172.333 -124.5 301zM328.001 450.999c0 -100 28.833 -181.333 86.5 -244s134.5 -94 230.5 -94c64.667 0 122.667 13.667 174 41l-407 546c-26 -24.667 -46.5 -60 -61.5 -106s-22.5 -93.667 -22.5 -143z" />
    <glyph glyph-name="quotesingle" unicode="'" horiz-adv-x="440" 
d="M102 1516h236l-41 -406l-72 -168h-8l-74 168z" />
    <glyph glyph-name="parenleft" unicode="(" horiz-adv-x="710" 
d="M113 561c0 108 12.668 211.504 38.001 310.504s57.5 184.333 96.5 256s83.167 136.5 132.5 194.5s96.833 104.167 142.5 138.5s89.167 59.5 130.5 75.5l6 -2l-30.5 -38.5c-6.33301 -8.33301 -20.166 -29.5 -41.499 -63.5s-38.666 -66.333 -51.999 -97
s-29.5 -73.834 -48.5 -129.501s-34.167 -112.667 -45.5 -171s-21.166 -129 -29.499 -212s-12.5 -170.167 -12.5 -261.5c0 -90.667 4.16699 -177.334 12.5 -260.001s18.166 -153 29.499 -211s26.666 -114.833 45.999 -170.5s35.5 -98.667 48.5 -129s30.167 -62.5 51.5 -96.5
s35.166 -55.167 41.499 -63.5l30.5 -38.5l-6 -2c-34 13.333 -69.833 33.166 -107.5 59.499s-77 59.5 -118 99.5s-80 87.833 -117 143.5s-70.333 116.167 -100 181.5s-53.334 140.166 -71.001 224.499s-26.5 171.833 -26.5 262.5z" />
    <glyph glyph-name="parenright" unicode=")" horiz-adv-x="710" 
d="M51 -408l30.5 38.498c6.33301 8.33301 20.166 29.5 41.499 63.5s38.666 66.333 51.999 97s29.5 73.834 48.5 129.501s34.167 112.667 45.5 171s21.166 129 29.499 212s12.5 170.167 12.5 261.5c0 90.667 -4.16699 177.334 -12.5 260.001s-18.166 153 -29.499 211
s-26.666 114.833 -45.999 170.5s-35.5 98.667 -48.5 129s-30.167 62.5 -51.5 96.5s-35.166 55.167 -41.499 63.5l-30.5 38.5l6 2c41.333 -16 84.833 -41 130.5 -75s93.334 -80 143.001 -138s94 -122.5 133 -193.5s71.167 -155.833 96.5 -254.5s38 -202 38 -310
s-12.667 -211.5 -38 -310.5s-57.5 -184.333 -96.5 -256s-83.333 -136.5 -133 -194.5s-97.334 -104.167 -143.001 -138.5s-89.167 -59.5 -130.5 -75.5z" />
    <glyph glyph-name="asterisk" unicode="*" horiz-adv-x="1079" 
d="M51 1178l1.99609 8.00293l174 96l6 -2l14 -16.5c6 -7 18.833 -20.333 38.5 -40s39.834 -38.334 60.501 -56.001s46 -36.5 76 -56.5s59.333 -36 88 -48c-4.66699 49.333 -17.167 101.5 -37.5 156.5s-39.166 97.833 -56.499 128.5l-27 45v8l146 135h8l145 -135v-8
c-8 -12 -18 -28.667 -30 -50s-29.167 -61 -51.5 -119s-35.5 -111.667 -39.5 -161c45.333 19.333 91.166 47.166 137.499 83.499s81.166 67.5 104.499 93.5l35 40l6 2l174 -96l2 -8l-82 -181l-8 -2c-68 19.333 -141.667 29 -221 29c-47.333 0 -91 -4.66699 -131 -14
c32.667 -37.333 73.5 -72.5 122.5 -105.5s89.5 -56.5 121.5 -70.5l49 -21l4 -6l-39 -195l-6 -4l-197 23l-4 6c0 5.33301 -0.5 12.666 -1.5 21.999s-3.66699 28 -8 56s-9.66602 55 -15.999 81s-15.666 56 -27.999 90s-26.5 64.333 -42.5 91
c-25.333 -42.667 -46.166 -92.334 -62.499 -149.001s-26.166 -102.667 -29.499 -138l-5 -53l-4 -6l-196 -23l-6 4l-39 195l4 6l20 8.5c8.66699 3.66699 25.334 11.834 50.001 24.501s48.5 26 71.5 40s48.667 32.167 77 54.5s53.166 45.5 74.499 69.5
c-40 9.33301 -84 14 -132 14c-35.333 0 -71.333 -2.33301 -108 -7s-64.667 -9.66699 -84 -15l-29 -7l-8 2z" />
    <glyph glyph-name="plus" unicode="+" 
d="M154 600v205h374v379h213v-379h375v-205h-375v-379h-213v379h-374z" />
    <glyph glyph-name="comma" unicode="," horiz-adv-x="565" 
d="M82 172l0.000976562 8l197 193h8l196 -193v-8l-278 -510l-8 4c13.333 48.667 20 104.667 20 168c0 64.667 -11.333 126.5 -34 185.5s-56.334 109.833 -101.001 152.5z" />
    <glyph glyph-name="hyphen" unicode="-" horiz-adv-x="1071" 
d="M72 512v8l135 217h792v-8l-135 -217h-792z" />
    <glyph glyph-name="period" unicode="." horiz-adv-x="565" 
d="M82 172v8c28 10 64.333 37.167 109 81.5s74 81.5 88 111.5h8c14 -30 43.167 -67.167 87.5 -111.5s80.5 -71.5 108.5 -81.5v-8l-196 -192h-8z" />
    <glyph glyph-name="slash" unicode="/" horiz-adv-x="847" 
d="M51 -94l559 1622h187l-559 -1622h-187z" />
    <glyph glyph-name="zero" unicode="0" 
d="M92 717c0 230 50 410.333 150 541s231 196 393 196s293 -65.333 393 -196s150 -311 150 -541s-50 -410.333 -150 -541s-231 -196 -393 -196s-293 65.333 -393 196s-150 311 -150 541zM410 717c0 -92 1.66699 -169.667 5 -233s9.83301 -122 19.5 -176
s22.834 -96.667 39.501 -128s38.167 -55.5 64.5 -72.5s58.5 -25.5 96.5 -25.5s70.167 8.5 96.5 25.5s47.833 41.167 64.5 72.5s29.834 74 39.501 128s16.167 112.667 19.5 176s5 141 5 233s-1.66699 169.667 -5 233s-9.83301 122 -19.5 176s-22.834 96.667 -39.501 128
s-38.167 55.5 -64.5 72.5s-58.5 25.5 -96.5 25.5s-70.167 -8.5 -96.5 -25.5s-47.833 -41.167 -64.5 -72.5s-29.834 -74 -39.501 -128s-16.167 -112.667 -19.5 -176s-5 -141 -5 -233z" />
    <glyph glyph-name="one" unicode="1" horiz-adv-x="921" 
d="M102 0v19.999l215 78v1063l-4 6h-211v21c68.667 17.333 150.5 51.833 245.5 103.5s173.833 105.834 236.5 162.501h20v-1130c0 -90.667 17.667 -160 53 -208s89.333 -80 162 -96v-20h-717z" />
    <glyph glyph-name="two" unicode="2" horiz-adv-x="1073" 
d="M20 8c210 249.333 369.833 464.167 479.5 644.5s164.5 334.833 164.5 463.5c0 74 -17.667 130 -53 168s-80 57 -134 57c-62.667 0 -110 -22.333 -142 -67s-48 -99.334 -48 -164.001c0 -40.667 5.33301 -75.334 16 -104.001l-6 -7l-227 287
c52.667 50.667 115 91.334 187 122.001s149.333 46 232 46c49.333 0 97 -4.83301 143 -14.5s89 -24.667 129 -45s74.833 -45 104.5 -74s53 -63.667 70 -104s25.5 -84.166 25.5 -131.499s-7.66699 -93.333 -23 -138s-35 -85.667 -59 -123s-56.833 -80 -98.5 -128
s-82.667 -92.667 -123 -134l-151 -159.5c-60.333 -65 -115.833 -127.5 -166.5 -187.5h504l6 2l102 223h9v-440h-936z" />
    <glyph glyph-name="three" unicode="3" horiz-adv-x="1013" 
d="M41 131l176 217.002l6 -2c0 -71.333 16.833 -131.5 50.5 -180.5s83.167 -73.5 148.5 -73.5c62 0 109.5 22.667 142.5 68s49.5 110 49.5 194c0 44.667 -4 85.5 -12 122.5s-21 70.833 -39 101.5s-43.333 54.667 -76 72s-71.334 26 -116.001 26l-111 104v8h51
c57.333 0 106.5 16.667 147.5 50s70.667 74.166 89 122.499s27.5 100.166 27.5 155.499c0 75.333 -14.667 131.666 -44 168.999s-69 56 -119 56c-58.667 0 -103.167 -23 -133.5 -69s-45.5 -101.333 -45.5 -166l-6 -2l-164 178c96.667 114.667 224.334 172 383.001 172
c123.333 0 225.166 -29.5 305.499 -88.5s120.5 -142.167 120.5 -249.5c0 -86 -26 -159.333 -78 -220s-113.333 -102 -184 -124v-8c94.667 -23.333 170.334 -64.166 227.001 -122.499s85 -135.5 85 -231.5c0 -133.333 -43 -238.333 -129 -315s-205.667 -115 -359 -115
c-161.333 0 -292.333 50.333 -393 151z" />
    <glyph glyph-name="four" unicode="4" horiz-adv-x="1165" 
d="M20 451l869 1085h8v-1073h186v-8l-159 -140h-27v-315c-43.333 -1.33301 -91.5 -6.33301 -144.5 -15s-97.833 -20.667 -134.5 -36h-8v366h-440l-147 129zM197 469l2 -6h411v526h-8z" />
    <glyph glyph-name="five" unicode="5" horiz-adv-x="1073" 
d="M102 131l153.999 229l6 -2c0 -76 23.5 -137.667 70.5 -185s108.167 -71 183.5 -71c78.667 0 140 21.833 184 65.5s66 103.167 66 178.5c0 33.333 -6.5 66.333 -19.5 99s-35 65.167 -66 97.5s-69.333 60.833 -115 85.5s-104.667 44.667 -177 60s-152.833 23 -241.5 23
l80 723h598l70 102h8v-317h-569l-27 -263c92 -1.33301 175.833 -12 251.5 -32s139.167 -46.5 190.5 -79.5s94.833 -71.833 130.5 -116.5s61.5 -91.5 77.5 -140.5s24 -100.167 24 -153.5c0 -62.667 -10.5 -121 -31.5 -175s-51.667 -102 -92 -144s-92.833 -75 -157.5 -99
s-137.667 -36 -219 -36c-75.333 0 -145.666 13.333 -210.999 40s-121.333 63.667 -168 111z" />
    <glyph glyph-name="six" unicode="6" horiz-adv-x="1204" 
d="M92 584c0 119.333 23.5029 232.832 70.5029 340.499s110.333 200.167 190 277.5s174.667 138.666 285 183.999s226.166 68 347.499 68v-82c-104.667 -0.666992 -196.667 -24.667 -276 -72s-142.166 -111.333 -188.499 -192s-78.5 -175.667 -96.5 -285l182 72h72
c123.333 0 223.166 -41.5 299.499 -124.5s114.5 -188.833 114.5 -317.5c0 -133.333 -45.333 -245.5 -136 -336.5s-202.334 -136.5 -335.001 -136.5c-56.667 0 -110.334 6.66699 -161.001 20s-98.667 35.333 -144 66s-84.5 68.834 -117.5 114.501s-59 102.834 -78 171.501
s-28.5 146 -28.5 232zM410.003 624.999c0 -190.667 18.001 -328.833 54.001 -414.5s89.667 -128.5 161 -128.5c36 0 67.167 14.833 93.5 44.5s45.666 66.5 57.999 110.5s18.5 90.667 18.5 140c0 144.667 -20.833 250.167 -62.5 316.5s-108.5 99.5 -200.5 99.5h-112
c-6.66699 -58.667 -10 -114.667 -10 -168z" />
    <glyph glyph-name="seven" unicode="7" horiz-adv-x="1011" 
d="M51 952v482h938l2 -7l-469 -1427c-133.333 0 -244 -17 -332 -51l-4 6l588 1264h-418c-146.667 0 -245.667 -89 -297 -267h-8z" />
    <glyph glyph-name="eight" unicode="8" horiz-adv-x="1220" 
d="M92 385c0 197.333 99.002 320.333 297.002 369v8c-72.667 22.667 -132.834 60.5 -180.501 113.5s-71.5 124.5 -71.5 214.5c0 108.667 45.5 196.5 136.5 263.5s203.167 100.5 336.5 100.5s245.5 -33.5 336.5 -100.5s136.5 -154.833 136.5 -263.5
c0 -90 -23.833 -161.5 -71.5 -214.5s-107.834 -90.833 -180.501 -113.5v-8c198 -48.667 297 -171.667 297 -369c0 -122 -48 -220 -144 -294s-220.667 -111 -374 -111s-278 37 -374 111s-144 172 -144 294zM399.002 369c0 -86 17.667 -155.332 53 -207.999s88 -79 158 -79
s122.667 26.333 158 79s53 122 53 208c0 189.333 -70.333 310 -211 362c-140.667 -52.667 -211 -173.334 -211 -362.001zM434.002 1104c0 -88 15.833 -162 47.5 -222s74.5 -100 128.5 -120c54 20 96.833 60 128.5 120s47.5 134 47.5 222c0 80 -15.833 141.333 -47.5 184
s-74.5 64 -128.5 64s-96.833 -21.333 -128.5 -64s-47.5 -104 -47.5 -184z" />
    <glyph glyph-name="nine" unicode="9" horiz-adv-x="1204" 
d="M113 981c0 86.667 22.167 166.502 66.5 239.502s102.5 130.167 174.5 171.5s148.667 62 230 62c53.333 0 104.5 -6.66699 153.5 -20s96.5 -35.333 142.5 -66s86 -68.667 120 -114s61.167 -102.666 81.5 -171.999s30.5 -146.666 30.5 -231.999
c0 -115.333 -15.167 -220.833 -45.5 -316.5s-72.5 -177.334 -126.5 -245.001s-118.5 -124.834 -193.5 -171.501s-156.667 -81.167 -245 -103.5s-182.5 -33.5 -282.5 -33.5v81c166 1.33301 295.667 47.166 389 137.499s151.333 228.166 174 413.499l-184 -73h-72
c-123.333 0 -223 41.5 -299 124.5s-114 188.833 -114 317.5zM410 1057c0 -144.667 20.666 -250.168 61.999 -316.501s108 -99.5 200 -99.5h114c6 76.667 9 132.667 9 168c0 190.667 -18 328.834 -54 414.501s-89.667 128.5 -161 128.5c-36 0 -67.167 -14.833 -93.5 -44.5
s-45.666 -66.5 -57.999 -110.5s-18.5 -90.667 -18.5 -140z" />
    <glyph glyph-name="colon" unicode=":" horiz-adv-x="565" 
d="M82 172v8c28 10 64.333 37.167 109 81.5s74 81.5 88 111.5h8c14 -30 43.167 -67.167 87.5 -111.5s80.5 -71.5 108.5 -81.5v-8l-196 -192h-8zM82 782v9l197 192h8l196 -192v-9c-28 -10 -64.167 -37 -108.5 -81s-73.5 -81 -87.5 -111h-8c-14 30 -43.333 67 -88 111
s-81 71 -109 81z" />
    <glyph glyph-name="semicolon" unicode=";" horiz-adv-x="565" 
d="M82 172l0.000976562 8l197 193h8l196 -193v-8l-278 -510l-8 4c13.333 48.667 20 104.667 20 168c0 64.667 -11.333 126.5 -34 185.5s-56.334 109.833 -101.001 152.5zM82.001 782v9l197 192h8l196 -192v-9c-28 -10 -64.167 -37 -108.5 -81s-73.5 -81 -87.5 -111h-8
c-14 30 -43.333 67 -88 111s-81 71 -109 81z" />
    <glyph glyph-name="less" unicode="&#x3c;" 
d="M154 612v181l886 360l76 -184l-672 -267l672 -266l-76 -184z" />
    <glyph glyph-name="equal" unicode="=" 
d="M154 395v205h962v-205h-962zM154 805v205h962v-205h-962z" />
    <glyph glyph-name="greater" unicode="&#x3e;" 
d="M154 436l671 266l-671 267l75 184l887 -360v-181l-887 -360z" />
    <glyph glyph-name="question" unicode="?" horiz-adv-x="1097" 
d="M61 1286c54 49.333 117.333 89.666 190 120.999s151.334 47 236.001 47c140 0 252.833 -33.667 338.5 -101s128.5 -156.666 128.5 -267.999c0 -108.667 -34.167 -204 -102.5 -286s-163.833 -149 -286.5 -201l-78 -176h-8l-112 246c46.667 19.333 86.667 41.5 120 66.5
s59.5 50.167 78.5 75.5s34 54.333 45 87s18.167 63 21.5 91s5 60.333 5 97c0 82.667 -15.333 147.834 -46 195.501s-75.334 71.5 -134.001 71.5c-56.667 0 -100.5 -22.5 -131.5 -67.5s-46.5 -97.833 -46.5 -158.5c0 -52.667 5.33301 -93.334 16 -122.001l-6 -7zM283 172v8
c28 10 64.167 37.167 108.5 81.5s73.5 81.5 87.5 111.5h8c14 -30 43.333 -67.167 88 -111.5s81 -71.5 109 -81.5v-8l-197 -192h-8z" />
    <glyph glyph-name="at" unicode="@" horiz-adv-x="1597" 
d="M72 502c0 134.667 32.666 259.498 97.999 374.498s153.833 205.833 265.5 272.5s232.834 100 363.501 100s251.834 -33.333 363.501 -100s200.167 -157.5 265.5 -272.5s98 -239.833 98 -374.5c0 -101.333 -19.5 -199 -58.5 -293s-92.5 -174 -160.5 -240l-453 451l68 395
c-18.667 2.66699 -29 4 -31 4c-46 0 -87 -15.833 -123 -47.5s-63.833 -71.667 -83.5 -120s-34.5 -96.666 -44.5 -144.999s-15 -93.5 -15 -135.5c0 -52.667 10.167 -91.5 30.5 -116.5s46.833 -37.5 79.5 -37.5c48.667 0 91.667 13.667 129 41l33 -53c-22 -24 -52 -45 -90 -63
s-78.333 -27 -121 -27c-98.667 0 -175.834 26.333 -231.501 79s-83.5 123.334 -83.5 212.001c0 60.667 12 120.834 36 180.501s57.167 113.667 99.5 162s96 87.5 161 117.5s134.833 45 209.5 45c100 0 203.667 -19.667 311 -59l-53 -293c-15.333 -94 -23 -158.667 -23 -194
c0 -56.667 12.5 -101 37.5 -133s58.167 -48 99.5 -48c45.333 0 81.333 26.667 108 80s40 132.666 40 237.999c0 86.667 -15.833 169.334 -47.5 248.001s-74.167 146.167 -127.5 202.5s-116.833 101.166 -190.5 134.499s-151.167 50 -232.5 50s-158.833 -16.667 -232.5 -50
s-137.167 -78.166 -190.5 -134.499s-95.833 -123.833 -127.5 -202.5s-47.5 -161.334 -47.5 -248.001c0 -116.667 26.667 -223.667 80 -321s125.666 -174 216.999 -230s191 -84 299 -84c38 0 66.5 8.83301 85.5 26.5s28.5 42.167 28.5 73.5c0 28.667 -7.33301 58.667 -22 90
l6 4l229 -227c-95.333 -53.333 -204.333 -80 -327 -80c-130 0 -250.667 33.5 -362 100.5s-199.666 158 -264.999 273s-98 239.833 -98 374.5z" />
    <glyph glyph-name="A" unicode="A" horiz-adv-x="1308" 
d="M-31 0v8l103 70l587 1417h9l569 -1417l102 -70v-8h-399l-160 428l-172 -111h-260l-29 -69c-14.667 -38.667 -22 -73.667 -22 -105c0 -67.333 36.333 -112.333 109 -135v-8h-437zM408 467h358l-166 451h-8z" />
    <glyph glyph-name="B" unicode="B" horiz-adv-x="1230" 
d="M92 0l0.000976562 7.99609l113 70v1114h254v8l-367 225v9h502c164 0 290 -29 378 -87s132 -146.667 132 -266c0 -71.333 -21.333 -132.166 -64 -182.499s-102.667 -89.166 -180 -116.499v-8c97.333 -27.333 173.166 -73.666 227.499 -138.999
s81.5 -146.666 81.5 -243.999c0 -132 -40.5 -230.167 -121.5 -294.5s-198.167 -96.5 -351.5 -96.5h-604zM502.001 132.996l91.998 0.00195312c50.667 0 93.334 6.5 128.001 19.5s61.167 32 79.5 57s31.333 53 39 84s11.5 67.5 11.5 109.5c0 90.667 -25.667 166 -77 226
s-130 111.667 -236 155v9c86.667 0 151.334 24.167 194.001 72.5s64 114.166 64 197.499c0 75.333 -17 133.666 -51 174.999s-91 62 -171 62h-73v-1167z" />
    <glyph glyph-name="C" unicode="C" horiz-adv-x="1212" 
d="M92 717c0 110 16.502 211.334 49.502 304.001s78 170.5 135 233.5s124.333 112 202 147s160.5 52.5 248.5 52.5c147.333 0 281.666 -36 402.999 -108l-49 -394h-8c-12 38.667 -24 73.334 -36 104.001s-27.667 63.334 -47 98.001s-39.666 63.5 -60.999 86.5
s-47 42.167 -77 57.5s-62 23 -96 23c-108 0 -189.333 -49.5 -244 -148.5s-82 -244.167 -82 -435.5c0 -416 108 -624 324 -624c43.333 0 82.5 9.83301 117.5 29.5s65.5 48.167 91.5 85.5s48 75.5 66 114.5s36 85.167 54 138.5h9l49 -383
c-123.333 -78.667 -262 -118 -416 -118c-92 0 -176.333 15.667 -253 47s-143.334 77.166 -200.001 137.499s-100.834 137.666 -132.501 231.999s-47.5 201.166 -47.5 320.499z" />
    <glyph glyph-name="D" unicode="D" horiz-adv-x="1427" 
d="M92 0v8l113 70v1114h254v8l-367 225v9h563c138.667 0 259.5 -30 362.5 -90s181.667 -144 236 -252s81.5 -233 81.5 -375c0 -228 -60.167 -404.5 -180.5 -529.5s-286.833 -187.5 -499.5 -187.5h-563zM512 133h142.999c116 0 202 48.167 258 144.5s84 242.833 84 439.5
c0 204 -27.667 352.167 -83 444.5s-141.666 138.5 -258.999 138.5h-143v-1167z" />
    <glyph glyph-name="E" unicode="E" horiz-adv-x="1112" 
d="M92 0l0.000976562 8.00098l113 70v1278l-113 69v9h897v-420h-8c-8.66699 36 -20.667 69.333 -36 100s-35.166 59.667 -59.499 87s-55.5 49 -93.5 65s-80.667 24 -128 24h-152v-477h416v-8l-166 -146h-250v-516h193c46.667 0 89.167 9 127.5 27s69.666 42.167 93.999 72.5
s44.166 61.666 59.499 93.999s27.333 66.833 36 103.5h8v-440h-938z" />
    <glyph glyph-name="F" unicode="F" horiz-adv-x="1003" 
d="M92 1425l-0.000976562 9h901v-420h-8c-8.66699 36 -20.667 69.333 -36 100s-35.166 59.667 -59.499 87s-55.5 49 -93.5 65s-80.667 24 -128 24h-156v-487h389v-8l-166 -146h-223v-1059h-8c-29.333 43.333 -71 85.5 -125 126.5s-112 70.5 -174 88.5v1551z" />
    <glyph glyph-name="G" unicode="G" horiz-adv-x="1411" 
d="M92 717c0 109.333 18.001 210.505 54.001 303.505s84.833 171 146.5 234s133.667 112 216 147s169.5 52.5 261.5 52.5c204.667 0 365.667 -58.667 483 -176l-227 -315l-6 6c4 36 6 66 6 90c0 76.667 -20.5 139.5 -61.5 188.5s-102.5 73.5 -184.5 73.5
c-106.667 0 -191.667 -50.667 -255 -152s-95 -245.333 -95 -432c0 -212.667 29.667 -369.834 89 -471.501s152.666 -152.5 279.999 -152.5c69.333 0 133.333 14.333 192 43v215c0 93.333 -21.667 166.166 -65 218.499s-106.333 92.166 -189 119.499v8h541v-1127h-8
c-75.333 110.667 -168.333 182.334 -279 215.001v301l-170 -126h-84c-93.333 0 -179 15.667 -257 47s-146 77.166 -204 137.499s-103.167 137.666 -135.5 231.999s-48.5 201.166 -48.5 320.499z" />
    <glyph glyph-name="H" unicode="H" horiz-adv-x="1443" 
d="M92 0v7.99902l113 70v1286l-113 61v9h549v-9l-129 -61v-530h420v346c0 45.333 -2.83301 83.166 -8.5 113.499s-15 54 -28 71s-26.167 29.5 -39.5 37.5s-31 15.667 -53 23v9h549v-9l-113 -61v-1774h-8c-29.333 43.333 -71 85.5 -125 126.5s-112 70.5 -174 88.5v996
l-156 -121h-264v-426c0 -45.333 2.83301 -83.166 8.5 -113.499s15 -54.166 28 -71.499s26.167 -30 39.5 -38s31 -15.667 53 -23v-8h-549z" />
    <glyph glyph-name="I" unicode="I" horiz-adv-x="716" 
d="M92 1425v9h533v-9l-113 -69v-1571h-8c-29.333 43.333 -71 85.5 -125 126.5s-112 70.5 -174 88.5v1356z" />
    <glyph glyph-name="J" unicode="J" horiz-adv-x="727" 
d="M-51 1425l-0.000976562 8.99805h686v-9l-113 -69v-1012c0 -113.333 -10.333 -215.333 -31 -306s-49.167 -165.5 -85.5 -224.5s-76.166 -106.667 -119.499 -143s-90.333 -63.166 -141 -80.499l-6 2c26 35.333 45.167 71.5 57.5 108.5s18.5 88.5 18.5 154.5v1226
c0 196.667 -88.667 311.334 -266 344.001z" />
    <glyph glyph-name="K" unicode="K" horiz-adv-x="1351" 
d="M92 0l-0.000976562 8.00098l113 70v1278l-113 69v9h574v-9l-154 -69v-1102c0 -36 3 -67.833 9 -95.5s13.5 -49.834 22.5 -66.501s20.833 -31 35.5 -43s28.334 -20.667 41.001 -26s28 -10.333 46 -15v-8h-574zM540.999 748.001l383 481.002
c36.667 47.333 55 87.666 55 120.999c0 36.667 -24.667 61.667 -74 75v9h441v-9l-121 -69l-406 -504l600 -1051c58 -100.667 125.667 -167.334 203 -200.001l-2 -7c-10.667 -2.66699 -23 -4 -37 -4c-104.667 0 -227.667 57.333 -369 172s-266 267 -374 457z" />
    <glyph glyph-name="L" unicode="L" horiz-adv-x="1034" 
d="M92 0v8l113 70v1278l-113 69v9h594v-9l-174 -69v-1213h197c143.333 0 242.333 95.667 297 287h8v-430h-922z" />
    <glyph glyph-name="M" unicode="M" horiz-adv-x="1720" 
d="M92 0v8l113 70v1276l-113 71v9h404l374 -953h9l368 953h381v-9l-112 -69v-1278l112 -70v-8h-420v934h-8l-397 -1026h-8l-408 995h-8v-903h-287z" />
    <glyph glyph-name="N" unicode="N" horiz-adv-x="1382" 
d="M51 1425l-0.00195312 8.99902h395l549 -807h9v542c0 39.333 -2.33301 72.5 -7 99.5s-10.834 49.167 -18.501 66.5s-19.667 31.833 -36 43.5s-33.166 20.667 -50.499 27s-41 12.833 -71 19.5v9h469v-9l-112 -69v-1471h-9l-782 1127h-8v-748
c0 -49.333 2.83301 -88.833 8.5 -118.5s16.834 -53.667 33.501 -72s34.834 -31.666 54.501 -39.999s48.167 -16.833 85.5 -25.5v-8h-469v8l113 70v1200l-51 78z" />
    <glyph glyph-name="O" unicode="O" horiz-adv-x="1470" 
d="M92 717c0 114.667 16.8311 218.833 50.498 312.5s79.667 171.167 138 232.5s126.5 108.666 204.5 141.999s162 50 252 50c38.667 0 73.667 -2.66699 105 -8l-99 -422h-10l-65 289c-158.667 -42.667 -238 -241.334 -238 -596.001c0 -402.667 101.667 -604 305 -604
s305 201.333 305 604c0 244.667 -37.333 415.334 -112 512.001l53 178c122 -49.333 218.667 -133.666 290 -252.999s107 -265 107 -437c0 -114.667 -16.667 -218.834 -50 -312.501s-79.166 -171.167 -137.499 -232.5s-126.333 -108.666 -204 -141.999s-161.5 -50 -251.5 -50
s-173.833 16.667 -251.5 50s-145.667 80.666 -204 141.999s-104.166 138.833 -137.499 232.5s-50 197.834 -50 312.501z" />
    <glyph glyph-name="P" unicode="P" horiz-adv-x="1208" 
d="M92 1425l-0.00195312 9h572c160 0 287.333 -35 382 -105s142 -171 142 -303c0 -68 -14.167 -130 -42.5 -186s-66.166 -101.5 -113.499 -136.5s-100.166 -62 -158.499 -81s-118.833 -28.5 -181.5 -28.5h-8l-172 111v-920h-8c-29.333 43.333 -71 85.5 -125 126.5
s-112 70.5 -174 88.5v1192h254v8zM511.998 737h94c169.333 0 254 92.333 254 277c0 96 -22.333 166 -67 210s-118 66 -220 66h-61v-553z" />
    <glyph glyph-name="Q" unicode="Q" horiz-adv-x="1470" 
d="M92 717c0 114.667 16.665 218.833 49.998 312.5s79.166 171.167 137.499 232.5s126.333 108.666 204 141.999s161.5 50 251.5 50s173.833 -16.667 251.5 -50s145.667 -80.666 204 -141.999s104.166 -138.833 137.499 -232.5s50 -197.834 50 -312.501
c0 -51.333 -3.66699 -101.5 -11 -150.5s-19.166 -99.667 -35.499 -152s-39.833 -102.833 -70.5 -151.5s-67.334 -92 -110.001 -130l-250 238c92.667 0 139 115.333 139 346c0 402.667 -101.667 604 -305 604s-305 -201.333 -305 -604s101.667 -604 305 -604
c28.667 0 50.834 8.83301 66.501 26.5s23.5 53.834 23.5 108.501l361 -344c190.667 -180.667 380.334 -271 569.001 -271l-2 -6c-33.333 -14.667 -63.666 -24.5 -90.999 -29.5s-63.333 -7.5 -108 -7.5c-226 0 -437.333 93 -634 279l-121 115c-26.667 -2.66699 -48 -4 -64 -4
c-90 0 -173.833 16.667 -251.5 50s-145.667 80.666 -204 141.999s-104.166 138.833 -137.499 232.5s-50 197.834 -50 312.501z" />
    <glyph glyph-name="R" unicode="R" horiz-adv-x="1300" 
d="M92 0l0.000976562 8l113 70v1114h254v8l-367 225v9h572c56.667 0 110.834 -4.5 162.501 -13.5s100.334 -23.5 146.001 -43.5s85 -44.333 118 -73s59.167 -64.167 78.5 -106.5s29 -89.166 29 -140.499c0 -88 -25.667 -164 -77 -228s-120.666 -108.333 -207.999 -133
l506 -895c58 -100.667 125.667 -167.334 203 -200.001l-2 -7c-10.667 -2.66699 -23 -4 -37 -4c-50.667 0 -107.834 14.333 -171.501 43s-129 68.834 -196 120.501s-134 118 -201 199s-125.833 169.833 -176.5 266.5l-289 551v8h59c94 0 161.167 23.167 201.5 69.5
s60.5 112.833 60.5 199.5c0 79.333 -23.167 139.666 -69.5 180.999s-122.166 62 -227.499 62h-61v-1046c0 -32 3.66699 -61 11 -87s16.666 -47 27.999 -63s25.166 -30.167 41.499 -42.5s31.666 -21.5 45.999 -27.5s30.166 -11.333 47.499 -16v-8h-594z" />
    <glyph glyph-name="S" unicode="S" horiz-adv-x="1042" 
d="M72 1051c0 126 42.3291 224.668 126.996 296.001s192.334 107 323.001 107c65.333 0 130.666 -8.5 195.999 -25.5s122.333 -37.833 171 -62.5l-29 -362h-8c-16 50 -33.167 93.667 -51.5 131s-40.5 71.333 -66.5 102s-56.833 54 -92.5 70s-75.5 24 -119.5 24
c-51.333 0 -94.833 -17 -130.5 -51s-53.5 -76.333 -53.5 -127c0 -41.333 11.833 -79.333 35.5 -114s54.334 -64.834 92.001 -90.501s79.334 -51.167 125.001 -76.5s91.5 -52.5 137.5 -81.5s87.833 -60.667 125.5 -95s68.334 -76.833 92.001 -127.5s35.5 -107 35.5 -169
c0 -66 -13.167 -125.833 -39.5 -179.5s-62.333 -97.834 -108 -132.501s-98.334 -61.167 -158.001 -79.5s-123.167 -27.5 -190.5 -27.5c-144.667 0 -279 29.333 -403 88l29 372h8c79.333 -225.333 201.333 -338 366 -338c62.667 0 113.167 17.5 151.5 52.5
s57.5 83.167 57.5 144.5c0 46 -11.5 88.167 -34.5 126.5s-52.667 71 -89 98s-76.666 53.167 -120.999 78.5l-133 79.5c-44.333 27.667 -84.666 57.667 -120.999 90s-66 72.333 -89 120s-34.5 100.834 -34.5 159.501z" />
    <glyph glyph-name="T" unicode="T" horiz-adv-x="1126" 
d="M20 973l0.00878906 461h1086v-461h-8c-8.66699 40.667 -20.334 78.5 -35.001 113.5s-33.834 68.5 -57.501 100.5s-53.5 57.167 -89.5 75.5s-76.333 27.5 -121 27.5h-78v-1046c0 -32 3.66699 -61 11 -87s16.666 -47 27.999 -63s25.166 -30.167 41.499 -42.5
s31.666 -21.5 45.999 -27.5s30.166 -11.333 47.499 -16v-8h-655v8l174 70v1212h-64c-38 0 -73.167 -6.16699 -105.5 -18.5s-59.833 -28.5 -82.5 -48.5s-42.834 -44 -60.501 -72s-31.834 -56.5 -42.501 -85.5s-19.334 -59.833 -26.001 -92.5h-9z" />
    <glyph glyph-name="U" unicode="U" horiz-adv-x="1320" 
d="M72 1425l-0.00195312 9.00293h420v-1004c0 -198 81 -297 243 -297c78 0 138.833 25.333 182.5 76s65.5 134.667 65.5 252v719c0 44.667 -4.16699 82.667 -12.5 114s-20.666 55.5 -36.999 72.5s-32.166 29.5 -47.499 37.5s-34.333 15 -57 21v9h441v-9l-113 -69v-885
c0 -73.333 -8.66699 -138.5 -26 -195.5s-40.5 -103.833 -69.5 -140.5s-64.333 -66.834 -106 -90.501s-85.334 -40.334 -131.001 -50.001s-95.167 -14.5 -148.5 -14.5c-48 0 -92.833 3.66699 -134.5 11s-85.167 22.166 -130.5 44.499s-84.166 51.166 -116.499 86.499
s-58.833 83.833 -79.5 145.5s-31 132.834 -31 213.501v875z" />
    <glyph glyph-name="V" unicode="V" horiz-adv-x="1228" 
d="M-20 1425v9h405l299 -881h8l213 635c14 41.333 21 74.666 21 99.999c0 42.667 -12.5 75.334 -37.5 98.001s-56.833 35.667 -95.5 39v9h456v-9l-119 -69l-505 -1510h-9l-514 1510z" />
    <glyph glyph-name="W" unicode="W" horiz-adv-x="1843" 
d="M-20 1425v9h397l295 -846h8l305 887h8l301 -887h9l208 581c12.667 38.667 19 75 19 109c0 88.667 -47 137.667 -141 147v9h475v-9l-119 -69l-512 -1428h-8l-299 873h-8l-300 -873h-8l-512 1428z" />
    <glyph glyph-name="X" unicode="X" horiz-adv-x="1327" 
d="M0 0v8l113 70l409 594l-401 684l-101 69v9h410l285 -486l186 271c24.667 34.667 37 71.334 37 110.001c0 25.333 -7.66699 46.666 -23 63.999s-39 28 -71 32v9h459v-9l-113 -69l-387 -559l543 -920l-7 -4c-50 40.667 -114.833 72 -194.5 94s-155.167 33 -226.5 33
l-306 520l-211 -305c-24 -34.667 -36 -71.667 -36 -111c0 -55.333 31.333 -87.333 94 -96v-8h-459z" />
    <glyph glyph-name="Y" unicode="Y" horiz-adv-x="1228" 
d="M-20 1425l0.00390625 9h419l287 -598h8l172 340c28.667 58 43 105.667 43 143c0 64 -38.667 99.333 -116 106v9h456v-9l-125 -59l-352 -707v-415c0 -32 3.66699 -61 11 -87s16.666 -47 27.999 -63s25.166 -30.167 41.499 -42.5s31.666 -21.5 45.999 -27.5
s30.166 -11.333 47.499 -16v-8h-655v8l174 70v553l-361 735z" />
    <glyph glyph-name="Z" unicode="Z" horiz-adv-x="1079" 
d="M45 6l602.001 1284h-215c-47.333 0 -90 -9.33301 -128 -28s-69.333 -43.667 -94 -75s-44.667 -64.833 -60 -100.5s-27 -73.5 -35 -113.5h-9v461h914l4 -7l-604 -1284h242c47.333 0 90 9.33301 128 28s69.167 43.834 93.5 75.501s44.166 65.167 59.499 100.5
s27.333 73.333 36 114h8v-461h-940z" />
    <glyph glyph-name="bracketleft" unicode="[" horiz-adv-x="710" 
d="M113 -410v1946h546v-8l-165 -105h-115v-1720h115l165 -104v-9h-546z" />
    <glyph glyph-name="backslash" unicode="\" horiz-adv-x="727" 
d="M20 1528h187l559 -1622h-186z" />
    <glyph glyph-name="bracketright" unicode="]" horiz-adv-x="710" 
d="M51 -401l166 104h115v1720h-115l-166 105v8h547v-1946h-547v9z" />
    <glyph glyph-name="asciicircum" unicode="^" 
d="M168 731c54.667 59.333 126.5 166 215.5 320s149.5 281.667 181.5 383h140c32.667 -100 93.5 -227.5 182.5 -382.5s160.5 -261.833 214.5 -320.5l-4 -6l-463 373l-463 -373z" />
    <glyph glyph-name="underscore" unicode="_" horiz-adv-x="1024" 
d="M-31 -41h1086v-123h-1086v123z" />
    <glyph glyph-name="grave" unicode="`" horiz-adv-x="819" 
d="M43 1468l2 7.00098h406c9.33301 -47.333 34.5 -104.833 75.5 -172.5s82.5 -118.834 124.5 -153.501l-6 -6z" />
    <glyph glyph-name="a" unicode="a" horiz-adv-x="1046" 
d="M51 248c0 61.333 14.501 115.5 43.501 162.5s69.667 84.5 122 112.5s111.833 49 178.5 63s140.334 21.333 221.001 22v68c0 90 -10.667 155.167 -32 195.5s-57 60.5 -107 60.5c-42 0 -75.667 -14.333 -101 -43s-38 -67 -38 -115c0 -40.667 4.66699 -72.667 14 -96l-6 -6
l-266 164c41.333 63.333 97.666 113.833 168.999 151.5s155 56.5 251 56.5c68 0 126.5 -6 175.5 -18s91.833 -32 128.5 -60s64 -66.5 82 -115.5s27 -109.167 27 -180.5v-592l113 -70v-8h-410v113c-76.667 -88.667 -169.334 -133 -278.001 -133
c-84.667 0 -153.667 22.833 -207 68.5s-80 112.167 -80 199.5zM338.001 268c0 -44.667 10.832 -76.666 32.499 -95.999s46.834 -29 75.501 -29c60 0 116.667 34.333 170 103v250c-94 -2 -163.833 -20.333 -209.5 -55s-68.5 -92.334 -68.5 -173.001z" />
    <glyph glyph-name="b" unicode="b" horiz-adv-x="1208" 
d="M0 1507l-0.000976562 9.00098h459v-533c60.667 40.667 131 61 211 61c140.667 0 255.334 -47.333 344.001 -142s133 -224.667 133 -390c0 -168 -42.333 -298.667 -127 -392s-201.334 -140 -350.001 -140c-105.333 0 -190.666 34.667 -255.999 104l-244 -125h-8v1301
c0 44 -3 80.167 -9 108.5s-16.333 51.5 -31 69.5s-31 31.667 -49 41s-42.333 18.666 -73 27.999zM458.999 152.001c48 -40 104.667 -59.999 170 -59.999c68.667 0 119.167 32.167 151.5 96.5s48.5 172.166 48.5 323.499c0 150 -15.167 257.5 -45.5 322.5
s-85.5 97.5 -165.5 97.5c-54.667 0 -107.667 -21.333 -159 -64v-716z" />
    <glyph glyph-name="c" unicode="c" horiz-adv-x="1007" 
d="M61 492c0 84.667 13.3311 162.167 39.998 232.5s63.167 128.5 109.5 174.5s100.333 81.667 162 107s127.834 38 198.501 38c96 0 180.333 -22.167 253 -66.5s120.334 -101.833 143.001 -172.5l-283 -174l-6 6c22 45.333 33 91 33 137c0 44.667 -11 82.167 -33 112.5
s-54.667 45.5 -98 45.5c-63.333 0 -112.666 -35.333 -147.999 -106s-53 -172 -53 -304c0 -280 78.333 -420 235 -420c101.333 0 190.333 38.333 267 115l63 -59c-41.333 -54 -93.833 -97.167 -157.5 -129.5s-135.5 -48.5 -215.5 -48.5c-154.667 0 -278.334 45 -371.001 135
s-139 215.667 -139 377z" />
    <glyph glyph-name="d" unicode="d" horiz-adv-x="1198" 
d="M61 492c0 166.667 44.832 300.334 134.499 401.001s204.167 151 343.5 151c78.667 0 148.334 -20.333 209.001 -61v277c0 44 -3 80.167 -9 108.5s-16.333 51.5 -31 69.5s-31 31.667 -49 41s-42.333 18.666 -73 27.999v9h458v-1557h-8l-288 152
c-74.667 -87.333 -163.667 -131 -267 -131c-130 0 -232.5 44 -307.5 132s-112.5 214.667 -112.5 380zM378.999 492c0 -100.667 6.5 -180.334 19.5 -239.001s30.667 -98.5 53 -119.5s51.5 -31.5 87.5 -31.5c38 0 75.667 13.833 113 41.5s69.333 61.834 96 102.501v622
c-51.333 42.667 -104 64 -158 64c-82 0 -137.667 -35.333 -167 -106s-44 -182 -44 -334z" />
    <glyph glyph-name="e" unicode="e" horiz-adv-x="1044" 
d="M61 492c0 84.667 13.333 162.168 40 232.501s63.167 128.5 109.5 174.5s100.333 81.667 162 107s127.834 38 198.501 38c127.333 0 229.5 -38.833 306.5 -116.5s115.5 -179.834 115.5 -306.501v-99h-487l-125 86c-1.33301 -18 -2 -46.667 -2 -86
c0 -280 78.333 -420 235 -420c110 0 202.333 38.333 277 115l63 -59c-89.333 -118.667 -217 -178 -383 -178c-154.667 0 -278.334 45 -371.001 135s-139 215.667 -139 377zM383 635.001h266.001c35.333 0 60.666 8.5 75.999 25.5s23 42.5 23 76.5
c0 56 -14.667 102.5 -44 139.5s-68 55.5 -116 55.5c-118.667 0 -187 -99 -205 -297z" />
    <glyph glyph-name="f" unicode="f" horiz-adv-x="757" 
d="M31 901l-0.000976562 8c35.333 20.667 60.833 36 76.5 46s32.834 23.5 51.501 40.5s32.667 35.167 42 54.5s17.333 43.333 24 72c11.333 48 27 91.333 47 130s41.667 71 65 97s51.666 48.833 84.999 68.5s65 35.167 95 46.5s65.833 20.833 107.5 28.5
s78.5 12.834 110.5 15.501s70.333 5.33398 115 8.00098l-23 -320h-8c-23.333 51.333 -50.833 90.166 -82.5 116.499s-63.5 39.5 -95.5 39.5c-92.667 0 -139 -59.333 -139 -178v-150h299v-8l-162 -115h-137v-625c0 -39.333 2.83301 -73.333 8.5 -102
s12.834 -51.834 21.501 -69.501s21.167 -33 37.5 -46s32 -22.667 47 -29s34.833 -13.5 59.5 -21.5v-8h-584v8l113 70v823h-174z" />
    <glyph glyph-name="g" unicode="g" horiz-adv-x="1024" 
d="M51 0l361.008 0.00292969v-8c-32 -7.33301 -58.5 -23.666 -79.5 -48.999s-31.5 -54.666 -31.5 -87.999c0 -42 17.667 -76.833 53 -104.5s82.666 -41.5 141.999 -41.5c56 0 103 16 141 48s57 73.333 57 124c0 23.333 -4.16699 46 -12.5 68s-22.833 44.167 -43.5 66.5
s-46.834 42 -78.501 59s-73 31.167 -124 42.5s-108.833 18 -173.5 20l-4 6l133 260c-44.667 6.66699 -86 17.167 -124 31.5s-73.833 33.166 -107.5 56.499s-60.167 53.666 -79.5 90.999s-29 79.666 -29 126.999c0 66.667 20.167 124.167 60.5 172.5
s93.666 84.166 159.999 107.499s141.166 35 224.499 35h528v-8c-29.333 -4 -59.666 -20.5 -90.999 -49.5s-49.333 -58.167 -54 -87.5c42 -52 63 -108.667 63 -170c0 -92 -37.833 -166.5 -113.5 -223.5s-181.834 -86.5 -318.501 -88.5l-37 -71
c175.333 -14 305.166 -54.833 389.499 -122.5s126.5 -153.834 126.5 -258.501c0 -48 -10.333 -93 -31 -135s-50.834 -79.5 -90.501 -112.5s-91.334 -59.167 -155.001 -78.5s-135.834 -29 -216.501 -29c-133.333 0 -240.833 34.833 -322.5 104.5s-122.5 165.5 -122.5 287.5
v18zM352.008 709.003c0 -70.667 13.667 -122.5 41 -155.5s61.666 -49.5 102.999 -49.5c42 0 76.667 16.5 104 49.5s41 84.833 41 155.5c0 72 -13.667 124.333 -41 157s-62 49 -104 49c-41.333 0 -75.666 -16.5 -102.999 -49.5s-41 -85.167 -41 -156.5z" />
    <glyph glyph-name="h" unicode="h" horiz-adv-x="1218" 
d="M0 1507v9.00098h459v-639c39.333 50.667 88.333 91.167 147 121.5s121.667 45.5 189 45.5c43.333 0 80.666 -4.33301 111.999 -13s60.333 -24 87 -46s46.834 -54.167 60.501 -96.5s20.5 -94.833 20.5 -157.5v-653l113 -70v-8h-410v686c0 62 -10.5 106.5 -31.5 133.5
s-53.5 40.5 -97.5 40.5c-33.333 0 -67 -9.83301 -101 -29.5s-63.667 -47.167 -89 -82.5v-492c0 -86 6.33301 -144.667 19 -176s43.667 -55.333 93 -72v-8h-522v8l113 70v1182c0 44 -3 80.167 -9 108.5s-16.333 51.5 -31 69.5s-31 31.667 -49 41s-42.333 18.666 -73 27.999z
" />
    <glyph glyph-name="i" unicode="i" horiz-adv-x="604" 
d="M41 0v7.99902l113 70v690c0 89.333 -7 148.833 -21 178.5s-44.667 52.834 -92 69.501v8h410v-782c0 -80.667 7.16699 -136 21.5 -166s44.5 -52.667 90.5 -68v-8h-522zM102 1315v8l197 193h8l197 -193v-8c-28 -10 -64.333 -37.167 -109 -81.5s-74 -81.5 -88 -111.5h-8
c-14 30 -43.333 67.167 -88 111.5s-81 71.5 -109 81.5z" />
    <glyph glyph-name="j" unicode="j" horiz-adv-x="604" 
d="M41 1016v7.99902h410v-680c0 -228.667 -31 -403 -93 -523s-153.333 -197 -274 -231l-6 2c26 35.333 45.167 71.5 57.5 108.5s18.5 88.5 18.5 154.5v913c0 89.333 -7 148.833 -21 178.5s-44.667 52.834 -92 69.501zM102 1315v8l197 193h8l197 -193v-8
c-28 -10 -64.333 -37.167 -109 -81.5s-74 -81.5 -88 -111.5h-8c-14 30 -43.333 67.167 -88 111.5s-81 71.5 -109 81.5z" />
    <glyph glyph-name="k" unicode="k" horiz-adv-x="1128" 
d="M-10 1507l0.000976562 8.99805h471v-1260c0 -86 6.33301 -144.667 19 -176s43.667 -55.333 93 -72v-8h-522v8l113 70v1182c0 82.667 -11.833 140.334 -35.5 173.001s-69.834 57.334 -138.501 74.001zM481.001 658.998l224 234c32.667 32.667 49 58.667 49 78
c0 20.667 -13.667 35.667 -41 45v8h426v-8l-156 -76l-235 -244l335 -618l86 -70v-8h-335z" />
    <glyph glyph-name="l" unicode="l" horiz-adv-x="604" 
d="M2 1507v9.00195h459v-1260c0 -86.667 7.16699 -145.834 21.5 -177.501s44.5 -55.167 90.5 -70.5v-8h-522v8l113 70v1182c0 44 -3 80.167 -9 108.5s-16.333 51.5 -31 69.5s-31 31.667 -49 41s-42.333 18.666 -73 27.999z" />
    <glyph glyph-name="m" unicode="m" horiz-adv-x="1712" 
d="M51 0v8.00195l113 70v690c0 62.667 -3.33301 109.5 -10 140.5s-17.334 53.667 -32.001 68s-38.334 27.5 -71.001 39.5v8h410v-147c79.333 111.333 179.666 167 300.999 167c65.333 0 117.833 -13.5 157.5 -40.5s66.834 -78.167 81.501 -153.5
c36 58.667 81.833 105.667 137.5 141s117.834 53 186.501 53c30.667 0 57.5 -2.5 80.5 -7.5s45.167 -14.833 66.5 -29.5s38.833 -34.167 52.5 -58.5s24.5 -56.333 32.5 -96s12 -86.834 12 -141.501v-633l112 -70v-8h-409v686c0 47.333 -4.5 84 -13.5 110
s-20.5 43.167 -34.5 51.5s-33 12.5 -57 12.5c-23.333 0 -49.166 -9.83301 -77.499 -29.5s-53.5 -48.834 -75.5 -87.501c1.33301 -9.33301 2 -20 2 -32v-484c0 -73.333 7.33301 -124.333 22 -153s44.667 -50.667 90 -66v-8h-409v686c0 47.333 -4.5 84 -13.5 110
s-20.5 43.167 -34.5 51.5s-33 12.5 -57 12.5c-24.667 0 -51 -8.83301 -79 -26.5s-52.667 -43.5 -74 -77.5v-529c0 -73.333 7.33301 -124.333 22 -153s44.667 -50.667 90 -66v-8h-522z" />
    <glyph glyph-name="n" unicode="n" horiz-adv-x="1220" 
d="M51 0l0.00195312 8.00098l113 70v690c0 61.333 -3.33301 107.5 -10 138.5s-17.334 54.167 -32.001 69.5s-38.334 28.666 -71.001 39.999v8h410v-147c39.333 50.667 88.333 91.167 147 121.5s121.667 45.5 189 45.5c43.333 0 80.666 -4.33301 111.999 -13
s60.333 -24 87 -46s46.834 -54.167 60.501 -96.5s20.5 -94.833 20.5 -157.5v-653l113 -70v-8h-410v686c0 62 -10.5 106.5 -31.5 133.5s-53.5 40.5 -97.5 40.5c-33.333 0 -67 -9.83301 -101 -29.5s-63.667 -47.167 -89 -82.5v-492c0 -86 6.33301 -144.667 19 -176
s43.667 -55.333 93 -72v-8h-522z" />
    <glyph glyph-name="o" unicode="o" horiz-adv-x="1159" 
d="M61 512c0 164.667 48.5 294.5 145.5 389.5s221.5 142.5 373.5 142.5c151.333 0 275.5 -47.5 372.5 -142.5s145.5 -224.833 145.5 -389.5s-48.5 -294.5 -145.5 -389.5s-221.167 -142.5 -372.5 -142.5c-152 0 -276.5 47.5 -373.5 142.5s-145.5 224.833 -145.5 389.5z
M379 512c0 -153.333 17 -261.668 51 -325.001s84 -95 150 -95c43.333 0 79.166 12.333 107.499 37s50.833 68.667 67.5 132s25 147 25 251s-8.33301 187.667 -25 251s-39.167 107.333 -67.5 132s-64.166 37 -107.499 37c-66 0 -116 -31.667 -150 -95
s-51 -171.666 -51 -324.999z" />
    <glyph glyph-name="p" unicode="p" horiz-adv-x="1208" 
d="M51 1016v8.00098h410v-88c60.667 72 137.667 108 231 108c131.333 0 240 -47.667 326 -143s129 -225 129 -389c0 -168 -42.167 -298.667 -126.5 -392s-200.5 -140 -348.5 -140c-82 0 -152.333 20.333 -211 61v-553h-8c-26.667 39.333 -66.5 77.166 -119.5 113.499
s-109.5 63.5 -169.5 81.5v1085c0 85.333 -7 144 -21 176s-44.667 56 -92 72zM461 156.001c50.667 -42.667 107.333 -64.001 170 -64.001c43.333 0 79 12.333 107 37s50.167 68.5 66.5 131.5s24.5 146.833 24.5 251.5c0 146.667 -15.833 253.334 -47.5 320.001
s-78.5 100 -140.5 100c-33.333 0 -65.5 -12.5 -96.5 -37.5s-58.833 -56.167 -83.5 -93.5v-645z" />
    <glyph glyph-name="q" unicode="q" horiz-adv-x="1187" 
d="M61 500c0 166 44.667 298.168 134 396.501s204 147.5 344 147.5c104 0 190 -34 258 -102l239 102h8v-1556h-8c-26.667 39.333 -66.5 77.166 -119.5 113.499s-109.167 63.5 -168.5 81.5v358c-61.333 -40.667 -131 -61 -209 -61c-149.333 0 -266.333 45 -351 135
s-127 218.333 -127 385zM379 500.001c0 -78 5 -144.332 15 -198.999s24.5 -96.834 43.5 -126.501s40 -50.834 63 -63.501s49.5 -19 79.5 -19c61.333 0 117.333 21.333 168 64v712c-51.333 42.667 -104 64 -158 64c-72 0 -125.167 -34.667 -159.5 -104
s-51.5 -178.666 -51.5 -327.999z" />
    <glyph glyph-name="r" unicode="r" horiz-adv-x="870" 
d="M51 0l0.000976562 8.00098l113 70v690c0 86 -6.5 144.667 -19.5 176s-44.167 55.333 -93.5 72v8h410v-170c87.333 126.667 220.333 190 399 190l-20 -382h-9c-20.667 50 -47.334 88.667 -80.001 116s-69.334 41 -110.001 41c-72 0 -132 -31.333 -180 -94v-449
c0 -39.333 2.83301 -73.333 8.5 -102s12.834 -51.834 21.501 -69.501s21.167 -33 37.5 -46s32 -22.667 47 -29s34.833 -13.5 59.5 -21.5v-8h-584z" />
    <glyph glyph-name="s" unicode="s" horiz-adv-x="829" 
d="M72 752c0 89.333 32.3301 160.329 96.9971 212.996s150.334 79 257.001 79c93.333 0 181.333 -14.333 264 -43l-22 -288h-9c-12 26.667 -23.833 49.834 -35.5 69.501s-27.5 42.334 -47.5 68.001s-43.333 45.667 -70 60s-55.334 21.5 -86.001 21.5
c-36 0 -64.167 -9.66699 -84.5 -29s-30.5 -42.333 -30.5 -69c0 -24 8.33301 -46.5 25 -67.5s38.334 -40 65.001 -57s56.167 -34.667 88.5 -53s64.5 -39.166 96.5 -62.499s61.333 -48.833 88 -76.5s48.334 -62.334 65.001 -104.001s25 -87.5 25 -137.5
c0 -90.667 -35.167 -162.667 -105.5 -216s-167.833 -80 -292.5 -80c-105.333 0 -198.666 14.333 -279.999 43l22 292h9c27.333 -62 64.166 -114.667 110.499 -158s97.5 -65 153.5 -65c40.667 0 73.334 10.333 98.001 31s37 48.667 37 84c0 28 -8 53.667 -24 77
s-37 44 -63 62s-54.5 35.833 -85.5 53.5s-62 37.334 -93 59.001s-59.5 45.334 -85.5 71.001s-47 57.5 -63 95.5s-24 80.333 -24 127z" />
    <glyph glyph-name="t" unicode="t" horiz-adv-x="768" 
d="M31 901l-0.000976562 8.00098c93.333 38.667 182 96 266 172s149.667 159.333 197 250h8v-307h235v-8l-162 -115h-73v-625c0 -39.333 2.83301 -73.333 8.5 -102s12.834 -51.834 21.501 -69.501s21.167 -33 37.5 -46s32 -22.667 47 -29s34.833 -13.5 59.5 -21.5v-8h-471
v901h-174z" />
    <glyph glyph-name="u" unicode="u" horiz-adv-x="1208" 
d="M51 1016l-0.000976562 8h410v-686c0 -62 10.167 -106.5 30.5 -133.5s51.833 -40.5 94.5 -40.5c31.333 0 63.333 9.66699 96 29s61.334 47 86.001 83v537c0 64.667 -7.33301 110.5 -22 137.5s-45 48.833 -91 65.5v8h410v-946l113 -70v-8h-410v147
c-39.333 -50.667 -87.833 -91.167 -145.5 -121.5s-119.167 -45.5 -184.5 -45.5c-42 0 -78.5 4.33301 -109.5 13s-59.5 24 -85.5 46s-45.667 54.167 -59 96.5s-20 94.833 -20 157.5v653z" />
    <glyph glyph-name="v" unicode="v" horiz-adv-x="1044" 
d="M-10 1016l-0.000976562 8h385l225 -532h8l150 354c9.33301 23.333 14 44.333 14 63c0 28 -8.16699 51.333 -24.5 70s-34.166 31 -53.499 37v8h361v-8l-92 -70l-437 -1007h-8l-436 1007z" />
    <glyph glyph-name="w" unicode="w" horiz-adv-x="1515" 
d="M-10 1016v8h362l230 -557h8l104 248l-55 137l2 8c36.667 21.333 71.5 51.833 104.5 91.5s61.5 84.167 85.5 133.5h9l256 -618h8l158 379c8 18.667 12 39 12 61c0 52 -28.667 88.333 -86 109v8h338v-8l-94 -74l-412 -1003h-8l-248 606h-8l-250 -606h-8l-414 1003z" />
    <glyph glyph-name="x" unicode="x" horiz-adv-x="1116" 
d="M10 0v8.00195l119 70l293 391l-309 477l-97 70v8h383l203 -315l107 141c26 35.333 39 64.666 39 87.999c0 38 -22.667 64 -68 78v8h397v-8l-119 -70l-274 -364l328 -506l94 -68v-8h-379l-223 342l-123 -166c-27.333 -34.667 -41 -65.334 -41 -92.001
c0 -38 22.667 -63.333 68 -76v-8h-398z" />
    <glyph glyph-name="y" unicode="y" horiz-adv-x="1044" 
d="M-10 1016l-0.00195312 8h385l225 -532h8l150 354c9.33301 23.333 14 44.333 14 63c0 28 -8.16699 51.333 -24.5 70s-34.166 31 -53.499 37v8h361v-8l-92 -70l-566 -1306c-111.333 0 -211.666 -16.667 -300.999 -50l-4 7l357 503l-367 846z" />
    <glyph glyph-name="z" unicode="z" horiz-adv-x="937" 
d="M31 8l504.001 892.998h-189c-40 0 -74.5 -5.16699 -103.5 -15.5s-52.833 -26 -71.5 -47s-33.334 -42.167 -44.001 -63.5s-21 -47.666 -31 -78.999h-8v328h807l2 -8l-502 -893h219c38.667 0 72.5 5 101.5 15s52.833 25.333 71.5 46s33.5 41.834 44.5 63.501
s21.833 48.5 32.5 80.5h8v-328h-839z" />
    <glyph glyph-name="braceleft" unicode="{" horiz-adv-x="710" 
d="M55 606l-0.00195312 7.99902c147.333 29.333 221 104 221 224c0 91.333 7 173.666 21 246.999s32.5 134.5 55.5 183.5s51.333 91.833 85 128.5s67.5 65.5 101.5 86.5s72 38.5 114 52.5l6 -2c-38 -33.333 -66.833 -73.166 -86.5 -119.499s-29.5 -107.5 -29.5 -183.5v-518
l-226 -99v-8l226 -98v-612c0 -76 9.83301 -137.333 29.5 -184s48.5 -86.667 86.5 -120l-6 -2c-30.667 10.667 -58 21.334 -82 32.001s-49.667 25 -77 43s-51 38 -71 60s-39.667 49.333 -59 82s-35.166 69.167 -47.499 109.5s-22.166 87.833 -29.499 142.5s-11 115 -11 181
v143c0 66 -18.5 115.833 -55.5 149.5s-92.167 58.167 -165.5 73.5z" />
    <glyph glyph-name="bar" unicode="|" horiz-adv-x="614" 
d="M205 -410v1946h205v-1946h-205z" />
    <glyph glyph-name="braceright" unicode="}" horiz-adv-x="710" 
d="M51 -408c38 33.333 66.998 73.332 86.998 119.999s30 108 30 184v612l225 98v8l-225 99v518c0 76 -9.83301 137.167 -29.5 183.5s-48.834 86.166 -87.501 119.499l6 2c42 -14 80 -31.5 114 -52.5s67.833 -49.833 101.5 -86.5s62 -79.5 85 -128.5
s41.5 -110.167 55.5 -183.5s21 -155.666 21 -246.999c0 -120 73.667 -194.667 221 -224v-8c-73.333 -15.333 -128.5 -39.833 -165.5 -73.5s-55.5 -83.5 -55.5 -149.5v-123c0 -91.333 -7.16699 -172.666 -21.5 -243.999s-32.666 -130 -54.999 -176
s-50.666 -86.333 -84.999 -121s-68.166 -61.167 -101.499 -79.5s-71.333 -34.833 -114 -49.5z" />
    <glyph glyph-name="asciitilde" unicode="~" 
d="M162 573l212.999 287c24.667 4 47 6 67 6c49.333 0 96.333 -5.33301 141 -16s80.667 -22.667 108 -36s59.833 -25.333 97.5 -36s75.167 -16 112.5 -16c86 0 153 24.667 201 74l6 -5l-211 -286c-24.667 -4 -48 -6 -70 -6c-48.667 0 -95.167 5.5 -139.5 16.5
s-80.166 22.833 -107.499 35.5s-59.833 24.5 -97.5 35.5s-75.5 16.5 -113.5 16.5c-87.333 0 -154.333 -24.667 -201 -74z" />
    <glyph glyph-name="uni00A0" unicode="&#xa0;" horiz-adv-x="491" 
 />
    <glyph glyph-name="exclamdown" unicode="&#xa1;" horiz-adv-x="606" 
d="M102 844v8l197 192h8l197 -192v-8c-28 -10 -64.333 -37.167 -109 -81.5s-74 -81.5 -88 -111.5h-8c-14 30 -43.333 67.167 -88 111.5s-81 71.5 -109 81.5zM143 -410l62 775l94 237h8l94 -237l60 -775h-318z" />
    <glyph glyph-name="cent" unicode="&#xa2;" horiz-adv-x="1003" 
d="M82 696c0 150 39.001 273.832 117.001 371.499s175.667 156.167 293 175.5l75 322h11l75 -324c74 -12 137.5 -37.167 190.5 -75.5s89.167 -86.833 108.5 -145.5l-221 -154l-6 6c9.33301 23.333 14 55.666 14 96.999c0 53.333 -13.5 98 -40.5 134s-68.167 54 -123.5 54
c-66.667 0 -117.667 -37.167 -153 -111.5s-53 -180.5 -53 -318.5c0 -52 3.5 -101.833 10.5 -149.5s18.833 -95.5 35.5 -143.5s42 -86.333 76 -115s75 -43 123 -43c50 0 99.167 11.667 147.5 35s90.166 55 125.499 95l47 -44c-68 -94.667 -161.667 -152 -281 -172l-75 -319
h-11l-73 317c-124.667 16.667 -224.5 69.334 -299.5 158.001s-112.5 205.334 -112.5 350.001z" />
    <glyph glyph-name="sterling" unicode="&#xa3;" horiz-adv-x="1044" 
d="M61 604l-0.00195312 7.99902l191 123h31l-41.5 86c-19 38.667 -33.667 69.5 -44 92.5s-20.166 51.333 -29.499 85s-14 65.5 -14 95.5c0 108.667 38.5 195.834 115.5 261.501s178.833 98.5 305.5 98.5c118.667 0 230 -26 334 -78l-28 -362h-9
c-31.333 100.667 -70.166 177 -116.499 229s-105.5 78 -177.5 78c-44 0 -79.667 -13.833 -107 -41.5s-41 -66.5 -41 -116.5c0 -36 9.83301 -77.333 29.5 -124s43.667 -98.5 72 -155.5s48.5 -106.5 60.5 -148.5h311v-8l-194 -123h-95c0 -88.667 -21.5 -174.667 -64.5 -258
s-103.833 -152.333 -182.5 -207l2 -6h309c141.333 0 240.333 99 297 297h8v-430h-905l-2 8c86 82.667 151.167 165.167 195.5 247.5s66.5 172.5 66.5 270.5c0 20 -3.33301 46 -10 78h-267z" />
    <glyph glyph-name="currency" unicode="&#xa4;" 
d="M78 137l155 252c-60 88.667 -90 186.334 -90 293.001s30 204.334 90 293.001l-155 254l6 6l254 -148c86.667 68.667 185.667 103 297 103s210.333 -34.333 297 -103l254 148l6 -6l-154 -254c60 -88.667 90 -186.334 90 -293.001s-30 -204.334 -90 -293.001l154 -252
l-6 -6l-254 148c-86.667 -68.667 -185.667 -103 -297 -103s-210.333 34.333 -297 103l-254 -148zM356 682c0 -88.667 25.667 -161.667 77 -219s118.666 -86 201.999 -86c84 0 151.667 28.5 203 85.5s77 130.167 77 219.5s-25.667 162.833 -77 220.5s-119 86.5 -203 86.5
c-83.333 0 -150.666 -28.833 -201.999 -86.5s-77 -131.167 -77 -220.5z" />
    <glyph glyph-name="yen" unicode="&#xa5;" horiz-adv-x="1228" 
d="M-20 1425v8.99902h419l287 -598h8l174 344c27.333 54 41 100.333 41 139c0 64 -38.667 99.333 -116 106v9h456v-9l-125 -59l-352 -707v-8h332v-8l-180 -115h-152v-163h332v-9l-180 -114h-152c0 -39.333 5.16699 -73.666 15.5 -102.999s24.833 -52.5 43.5 -69.5
s37 -30 55 -39s38 -16.5 60 -22.5v-8h-655v8l174 70v164h-332v8l180 115h152v163h-332v9l180 114h142l-351 715z" />
    <glyph glyph-name="brokenbar" unicode="&#xa6;" horiz-adv-x="614" 
d="M205 358h205v-768h-205v768zM205 768v768h205v-768h-205z" />
    <glyph glyph-name="section" unicode="&#xa7;" horiz-adv-x="948" 
d="M92 524c0 74 20.8291 135.996 62.4961 185.996s98.834 85 171.501 105c-34.667 22 -64 42.5 -88 61.5s-48.167 42 -72.5 69s-42.666 57.167 -54.999 90.5s-18.5 69.666 -18.5 108.999c0 96.667 34.833 172.334 104.5 227.001s159.834 82 270.501 82
c58 0 114.833 -7.33301 170.5 -22s103.167 -33.334 142.5 -56.001l-26 -297h-9c-23.333 82.667 -60.166 150.5 -110.499 203.5s-108.166 79.5 -173.499 79.5c-39.333 0 -71 -11.5 -95 -34.5s-36 -51.833 -36 -86.5c0 -30 9.83301 -58.167 29.5 -84.5s45.334 -50 77.001 -71
s66.5 -42.333 104.5 -64s76 -45.167 114 -70.5s72.833 -52.833 104.5 -82.5s57.334 -65.667 77.001 -108s29.5 -88.833 29.5 -139.5c0 -66.667 -19.5 -124 -58.5 -172s-91.833 -84.333 -158.5 -109c43.333 -28.667 79.666 -57.167 108.999 -85.5
s54.666 -64.666 75.999 -108.999s32 -92.833 32 -145.5c0 -97.333 -39.667 -173.833 -119 -229.5s-179.666 -83.5 -300.999 -83.5c-119.333 0 -232.666 28 -339.999 84l25 301h8c12.667 -37.333 28 -72.166 46 -104.499s39.667 -63.166 65 -92.499
s55.666 -52.666 90.999 -69.999s73.333 -26 114 -26c43.333 0 79.666 12 108.999 36s44 59 44 105c0 32.667 -9.5 63.167 -28.5 91.5s-43.667 53.333 -74 75s-63.833 43.334 -100.5 65.001s-73.334 44.5 -110.001 68.5s-70.167 49.667 -100.5 77s-55 60.5 -74 99.5
s-28.5 81.5 -28.5 127.5zM329.996 626.996c0 -46 17.168 -86.6689 51.501 -122.002s85.5 -74 153.5 -116c48.667 29.333 73 78 73 146c0 46.667 -15 87.834 -45 123.501s-73.667 72.834 -131 111.501c-32.667 -8.66699 -57.834 -25.667 -75.501 -51s-26.5 -56 -26.5 -92z
" />
    <glyph glyph-name="dieresis" unicode="&#xa8;" horiz-adv-x="819" 
d="M-16 1315v8l196 193h8l197 -193v-8c-28 -10 -64.333 -37.167 -109 -81.5s-74 -81.5 -88 -111.5h-8c-14 30 -43.167 67.167 -87.5 111.5s-80.5 71.5 -108.5 81.5zM434 1315v8l197 193h8l197 -193v-8c-28 -10 -64.333 -37.167 -109 -81.5s-74 -81.5 -88 -111.5h-8
c-14 30 -43.333 67.167 -88 111.5s-81 71.5 -109 81.5z" />
    <glyph glyph-name="copyright" unicode="&#xa9;" horiz-adv-x="1576" 
d="M51 717c0 133.333 33 256.5 99 369.5s155.5 202.5 268.5 268.5s236.167 99 369.5 99c100 0 195.5 -19.5 286.5 -58.5s169.5 -91.5 235.5 -157.5s118.5 -144.333 157.5 -235s58.5 -186 58.5 -286s-19.5 -195.333 -58.5 -286s-91.5 -169 -157.5 -235
s-144.5 -118.5 -235.5 -157.5s-186.5 -58.5 -286.5 -58.5c-133.333 0 -256.5 33 -369.5 99s-202.5 155.5 -268.5 268.5s-99 236.167 -99 369.5zM178 717c0 -86 16 -167.668 48 -245.001s75.333 -143.666 130 -198.999s119.5 -99.333 194.5 -132s154.167 -49 237.5 -49
c111.333 0 213.833 27.667 307.5 83s167.667 131 222 227s81.5 201 81.5 315s-27.167 218.833 -81.5 314.5s-128.333 171.167 -222 226.5s-196.167 83 -307.5 83s-213.833 -27.667 -307.5 -83s-167.5 -130.833 -221.5 -226.5s-81 -200.5 -81 -314.5zM424 726.999
c0 128.667 36.999 232.5 110.999 311.5s166.667 118.5 278 118.5c94.667 0 173.334 -21 236.001 -63l-29 -240h-8c-44 147.333 -105 221 -183 221c-58 0 -102.5 -28.5 -133.5 -85.5s-46.5 -140.5 -46.5 -250.5c0 -240 59.333 -360 178 -360c32.667 0 62.5 11.833 89.5 35.5
s48.167 50.667 63.5 81s28 63.833 38 100.5h8l29 -229c-68.667 -46.667 -150 -70 -244 -70c-116 0 -209.5 37.167 -280.5 111.5s-106.5 180.5 -106.5 318.5z" />
    <glyph glyph-name="ordfeminine" unicode="&#xaa;" horiz-adv-x="624" 
d="M41 977c0 71.333 30.999 123.002 92.999 155.002s144.333 48 247 48v41c0 66.667 -6.16699 113 -18.5 139s-38.166 39 -77.499 39c-33.333 0 -58.166 -10.833 -74.499 -32.5s-24.5 -48.5 -24.5 -80.5c0 -20 3 -39 9 -57l-7 -4l-131 92c22 38.667 55.5 71.167 100.5 97.5
s96.167 39.5 153.5 39.5c80.667 0 140.167 -17.333 178.5 -52s57.5 -96.334 57.5 -185.001v-340l67 -41v-9h-233v47c-46.667 -39.333 -99.334 -59 -158.001 -59c-55.333 0 -99.5 13.667 -132.5 41s-49.5 67.666 -49.5 120.999zM212.999 989.002
c0 -62.667 28.001 -94.001 84.001 -94.001c27.333 0 55.333 12.333 84 37v192c-56.667 -1.33301 -98.834 -12.166 -126.501 -32.499s-41.5 -54.5 -41.5 -102.5z" />
    <glyph glyph-name="guillemotleft" unicode="&#xab;" horiz-adv-x="933" 
d="M72 508v8c124 94.667 249.667 230 377 406h40l5 -9l-150 -401l150 -401l-5 -9h-40c-127.333 176 -253 311.333 -377 406zM420 508v8c124 94.667 249.667 230 377 406h41l4 -9l-150 -401l150 -401l-4 -9h-41c-127.333 176 -253 311.333 -377 406z" />
    <glyph glyph-name="logicalnot" unicode="&#xac;" 
d="M154 764v205h962v-625h-213v420h-749z" />
    <glyph glyph-name="uni00AD" unicode="&#xad;" horiz-adv-x="1071" 
d="M72 512v8l135 217h792v-8l-135 -217h-792z" />
    <glyph glyph-name="registered" unicode="&#xae;" horiz-adv-x="741" 
d="M61 1206c0 85.333 30.498 158.331 91.498 218.998s133.833 91 218.5 91s157.334 -30.333 218.001 -91s91 -133.667 91 -219c0 -62.667 -16.833 -119.334 -50.5 -170.001s-78.167 -88 -133.5 -112l-136 270v8c42.667 2.66699 64 28.667 64 78
c0 21.333 -5.66699 38.666 -17 51.999s-28.333 20 -51 20h-20v-285l45 -20v-9h-166v9l35 20v287l-35 20v8h164c35.333 0 66 -8.66699 92 -26s39 -42.666 39 -75.999c0 -49.333 -21.333 -80.666 -64 -93.999l64 -125c10.667 -22 22.334 -33 35.001 -33
c8 0 16.833 4.83301 26.5 14.5s18.5 22.5 26.5 38.5c19.333 40 29 81.667 29 125c0 72.667 -24.833 134.5 -74.5 185.5s-110.167 76.5 -181.5 76.5s-131.833 -25.5 -181.5 -76.5s-74.5 -112.833 -74.5 -185.5c0 -58.667 16.833 -110.667 50.5 -156
s76.167 -76.666 127.5 -93.999c16 -5.33301 32.333 -8 49 -8c31.333 0 47 15 47 45l6 2l45 -90c-18 -5.33301 -41 -8 -69 -8c-85.333 0 -158.333 30.333 -219 91s-91 133.334 -91 218.001z" />
    <glyph glyph-name="macron" unicode="&#xaf;" horiz-adv-x="819" 
d="M76 1229v164h667v-164h-667z" />
    <glyph glyph-name="degree" unicode="&#xb0;" horiz-adv-x="630" 
d="M55 1198c0 74 25.333 135.167 76 183.5s112 72.5 184 72.5s133.333 -24.167 184 -72.5s76 -109.5 76 -183.5c0 -73.333 -25.167 -134.666 -75.5 -183.999s-111.833 -74 -184.5 -74s-134.167 24.667 -184.5 74s-75.5 110.666 -75.5 183.999zM186 1198
c0 -40.667 12.167 -74 36.5 -100s55.166 -39 92.499 -39s68.166 13 92.499 39s36.5 59.333 36.5 100c0 40 -12.167 72.833 -36.5 98.5s-55.166 38.5 -92.499 38.5s-68.166 -12.833 -92.499 -38.5s-36.5 -58.5 -36.5 -98.5z" />
    <glyph glyph-name="plusminus" unicode="&#xb1;" 
d="M154 0v205h962v-205h-962zM154 723v205h374v317h213v-317h375v-205h-375v-317h-213v317h-374z" />
    <glyph glyph-name="uni00B2" unicode="&#xb2;" horiz-adv-x="677" 
d="M0 836c132 146 233.001 269.333 303.001 370s105 184 105 250c0 44.667 -10.5 77.667 -31.5 99s-49.5 32 -85.5 32c-38 0 -67.333 -13.5 -88 -40.5s-31 -57.167 -31 -90.5c0 -24 3.33301 -45 10 -63l-6 -4l-135 170c31.333 29.333 70.333 53.333 117 72s95 28 145 28
c79.333 0 148 -19.667 206 -59s87 -93.333 87 -162c0 -32.667 -5.5 -63.167 -16.5 -91.5s-29.333 -57.333 -55 -87s-51 -56.167 -76 -79.5l-106 -96.5c-45.667 -41 -84.834 -77.833 -117.501 -110.5h289l74 125h8v-271h-592z" />
    <glyph glyph-name="uni00B3" unicode="&#xb3;" horiz-adv-x="665" 
d="M31 905l102 125l6 -4c0 -44 12.5 -78.167 37.5 -102.5s58.167 -36.5 99.5 -36.5c40 0 71.667 13.5 95 40.5s35 65.167 35 114.5c0 42.667 -12.5 81.667 -37.5 117s-63.833 53 -116.5 53l-68 60v8h35c53.333 0 93.666 17.333 120.999 52s41 74.667 41 120
c0 42.667 -10 75.834 -30 99.501s-45.667 35.5 -77 35.5c-33.333 0 -60.666 -12 -81.999 -36s-32 -56.333 -32 -97l-6 -4l-97 106c28 32 63.5 57.167 106.5 75.5s88.167 27.5 135.5 27.5c76 0 139 -16.333 189 -49s75 -80.667 75 -144
c0 -50.667 -16.333 -92.334 -49 -125.001s-71.667 -55.667 -117 -69v-8c57.333 -10 104.5 -31.833 141.5 -65.5s55.5 -78.834 55.5 -135.501c0 -76.667 -27.5 -137.167 -82.5 -181.5s-130.5 -66.5 -226.5 -66.5c-52.667 0 -101.167 8.33301 -145.5 25
s-80.5 38.334 -108.5 65.001z" />
    <glyph glyph-name="acute" unicode="&#xb4;" horiz-adv-x="819" 
d="M168 1149c42 34.667 83.668 85.833 125.001 153.5s66.666 125.167 75.999 172.5h405l2 -7l-602 -325z" />
    <glyph glyph-name="uni00B5" unicode="&#xb5;" horiz-adv-x="1208" 
d="M51 1016l-0.000976562 7.99902h410v-686c0 -62 10.167 -106.5 30.5 -133.5s51.833 -40.5 94.5 -40.5c29.333 0 60.333 8.5 93 25.5s62.334 39.167 89.001 66.5v557c0 64.667 -7.33301 110.5 -22 137.5s-45 48.833 -91 65.5v8h410v-946l113 -70v-8h-410v127
c-40 -41.333 -86.5 -75.166 -139.5 -101.499s-108.833 -41.5 -167.5 -45.5v-390h-8c-66 96.667 -162.333 161.667 -289 195v1161z" />
    <glyph glyph-name="paragraph" unicode="&#xb6;" horiz-adv-x="1038" 
d="M51 1079c0 108.667 33.832 194.999 101.499 258.999s155.5 96 263.5 96h520v-9l-113 -69v-905c0 -113.333 -10.333 -215.333 -31 -306s-49.167 -165.5 -85.5 -224.5s-76.166 -106.667 -119.499 -143s-90.333 -63.166 -141 -80.499l-6 2c19.333 26 34 47.5 44 64.5
s19.5 43 28.5 78s13.5 74.833 13.5 119.5v766h-110c-108.667 0 -196.667 31.167 -264 93.5s-101 148.5 -101 258.5zM347.999 1079c0 -154 54 -231.001 162 -231.001h16v465h-26c-56 0 -95.333 -20.667 -118 -62s-34 -98.666 -34 -171.999z" />
    <glyph glyph-name="periodcentered" unicode="&#xb7;" horiz-adv-x="565" 
d="M82 612v9c28 10 64.333 37 109 81s74 81 88 111h8c14 -30 43.167 -67 87.5 -111s80.5 -71 108.5 -81v-9l-196 -192h-8z" />
    <glyph glyph-name="cedilla" unicode="&#xb8;" horiz-adv-x="819" 
d="M246 -182l92.001 202.001h94l-35 -120l168 -72v-10c0 -96 -28.5 -173.333 -85.5 -232s-123.167 -91.334 -198.5 -98.001l-2 6c32 6 60.333 27.5 85 64.5s37 79.167 37 126.5c0 40.667 -9.83301 73 -29.5 97s-47.834 36 -84.501 36c-16 0 -29 -2 -39 -6z" />
    <glyph glyph-name="uni00B9" unicode="&#xb9;" horiz-adv-x="503" 
d="M31 827l0.000976562 13.001l129 49v592l-6 6h-123v12c42.667 10.667 94.167 31.667 154.5 63s109.166 63.666 146.499 96.999h12v-770l129 -49v-13h-442z" />
    <glyph glyph-name="ordmasculine" unicode="&#xba;" horiz-adv-x="720" 
d="M61 1135c0 98 28.5 175.667 85.5 233s128.167 86 213.5 86c86 0 157.333 -28.5 214 -85.5s85 -134.833 85 -233.5s-28.333 -176.667 -85 -234s-128 -86 -214 -86c-85.333 0 -156.5 28.667 -213.5 86s-85.5 135.333 -85.5 234zM233 1135c0 -176.667 42.333 -265 127 -265
s127 88.333 127 265c0 176 -42.333 264 -127 264s-127 -88 -127 -264z" />
    <glyph glyph-name="guillemotright" unicode="&#xbb;" horiz-adv-x="933" 
d="M92 111l150 401l-150 401l4 9h41c127.333 -176 253 -311.333 377 -406v-8c-124 -94.667 -249.667 -230 -377 -406h-41zM440 111l150 401l-150 401l4 9h41c127.333 -176 253 -311.333 377 -406v-8c-124 -94.667 -249.667 -230 -377 -406h-41z" />
    <glyph glyph-name="onequarter" unicode="&#xbc;" horiz-adv-x="1507" 
d="M51 623l0.000976562 12.001l129 49v592l-6 6h-123v12c42.667 10.667 94.167 31.667 154.5 63s109.166 63.666 146.499 96.999h13v-770l129 -49v-12h-443zM205.001 6.00098l942 1428h166l2 -7l-942 -1427h-166zM801.001 231.001l522 600h8v-600h135v-8l-75 -73h-60v-150
c-22 0 -51.667 -3 -89 -9s-66.333 -12.667 -87 -20h-8v179h-258l-84 73zM918.001 238.001l4 -7h225v256h-8z" />
    <glyph glyph-name="onehalf" unicode="&#xbd;" horiz-adv-x="1632" 
d="M51 623l0.000976562 12.001l129 49v592l-6 6h-123v12c42.667 10.667 94.167 31.667 154.5 63s109.166 63.666 146.499 96.999h13v-770l129 -49v-12h-443zM205.001 6.00098l942 1428h166l2 -7l-942 -1427h-166zM934.001 8.00098
c130.667 145.333 231.168 268.667 301.501 370s105.5 185 105.5 251c0 87.333 -38.667 131 -116 131c-38 0 -67.333 -13.5 -88 -40.5s-31 -57.167 -31 -90.5c0 -24.667 3.33301 -46 10 -64l-6 -4l-135 170c31.333 29.333 70.333 53.333 117 72s95 28 145 28
c79.333 0 148 -19.667 206 -59s87 -93.333 87 -162c0 -32.667 -5.5 -63.167 -16.5 -91.5s-29.333 -57.333 -55 -87s-51 -56.167 -76 -79.5l-106 -96.5c-45.667 -41 -84.834 -77.833 -117.501 -110.5h289l74 125h8v-270h-592z" />
    <glyph glyph-name="threequarters" unicode="&#xbe;" horiz-adv-x="1548" 
d="M51 700l103.001 125.001l6 -4c0 -44 12.5 -78.167 37.5 -102.5s58.167 -36.5 99.5 -36.5c39.333 0 70.666 13.667 93.999 41s35 65.666 35 114.999c0 42.667 -12.5 81.667 -37.5 117s-63.833 53 -116.5 53l-67 59v8h35c53.333 0 93.5 17.333 120.5 52
s40.5 74.667 40.5 120c0 42.667 -9.83301 75.834 -29.5 99.501s-45.167 35.5 -76.5 35.5c-33.333 0 -60.833 -12 -82.5 -36s-32.5 -56.333 -32.5 -97l-6 -4l-96 107c27.333 32 62.333 57 105 75s88 27 136 27c76 0 139.167 -16.333 189.5 -49s75.5 -80.334 75.5 -143.001
c0 -50.667 -16.5 -92.5 -49.5 -125.5s-71.833 -56.167 -116.5 -69.5v-8c56.667 -10 103.5 -31.833 140.5 -65.5s55.5 -78.834 55.5 -135.501c0 -76.667 -27.5 -137.167 -82.5 -181.5s-130.5 -66.5 -226.5 -66.5c-52.667 0 -101.167 8.33301 -145.5 25
s-80.5 38.334 -108.5 65.001zM246.001 6.00098l942 1428h166l2 -7l-942 -1427h-166zM842.001 231.001l522 600h8v-600h135v-8l-75 -73h-60v-150c-22 0 -51.667 -3 -89 -9s-66.333 -12.667 -87 -20h-8v179h-258l-84 73zM958.001 238.001l5 -7h225v256h-8z" />
    <glyph glyph-name="questiondown" unicode="&#xbf;" horiz-adv-x="1097" 
d="M143 -61c0 108.667 34.166 204 102.499 286s163.833 149 286.5 201l78 176h8l113 -246c-46.667 -19.333 -86.667 -41.5 -120 -66.5s-59.5 -50.167 -78.5 -75.5s-34 -54.333 -45 -87s-18.167 -63 -21.5 -91s-5 -60.333 -5 -97c0 -82.667 15.333 -147.834 46 -195.501
s75.334 -71.5 134.001 -71.5c56.667 0 100.5 22.5 131.5 67.5s46.5 97.833 46.5 158.5c0 52.667 -5.33301 93.334 -16 122.001l6 7l227 -289c-54 -49.333 -117.5 -89.666 -190.5 -120.999s-151.5 -47 -235.5 -47c-140 0 -252.833 33.667 -338.5 101
s-128.5 156.666 -128.5 267.999zM413.999 844v8l196 192h8l197 -192v-8c-28 -10 -64.333 -37.167 -109 -81.5s-74 -81.5 -88 -111.5h-8c-14 30 -43.167 67.167 -87.5 111.5s-80.5 71.5 -108.5 81.5z" />
    <glyph glyph-name="Agrave" unicode="&#xc0;" horiz-adv-x="1308" 
d="M-31 0v8l103 70l587 1417h9l569 -1417l102 -70v-8h-399l-160 428l-172 -111h-260l-29 -69c-14.667 -38.667 -22 -73.667 -22 -105c0 -67.333 36.333 -112.333 109 -135v-8h-437zM297 1892l2 5.99902h406c9.33301 -47.333 34.5 -104.666 75.5 -171.999
s82.5 -118.333 124.5 -153l-6 -6zM408 466.999h358l-166 451h-8z" />
    <glyph glyph-name="Aacute" unicode="&#xc1;" horiz-adv-x="1308" 
d="M-31 0v8l103 70l587 1417h9l569 -1417l102 -70v-8h-399l-160 428l-172 -111h-260l-29 -69c-14.667 -38.667 -22 -73.667 -22 -105c0 -67.333 36.333 -112.333 109 -135v-8h-437zM408 467h358l-166 451h-8zM422 1552c42 34.667 83.668 85.833 125.001 153.5
s66.666 125.167 75.999 172.5h405l2 -6l-602 -326z" />
    <glyph glyph-name="Acircumflex" unicode="&#xc2;" horiz-adv-x="1308" 
d="M-31 0v8l103 70l587 1417h9l569 -1417l102 -70v-8h-399l-160 428l-172 -111h-260l-29 -69c-14.667 -38.667 -22 -73.667 -22 -105c0 -67.333 36.333 -112.333 109 -135v-8h-437zM283 1593c40.667 26.667 94.833 72.168 162.5 136.501s118.5 120.5 152.5 168.5h131
c34 -47.333 85 -103.333 153 -168s122 -110.334 162 -137.001l-4 -6l-376 119l-377 -119zM407.999 467.001h358l-166 451h-8z" />
    <glyph glyph-name="Atilde" unicode="&#xc3;" horiz-adv-x="1308" 
d="M-31 0v8l103 70l587 1417h9l569 -1417l102 -70v-8h-399l-160 428l-172 -111h-260l-29 -69c-14.667 -38.667 -22 -73.667 -22 -105c0 -67.333 36.333 -112.333 109 -135v-8h-437zM293 1686l166.001 225c19.333 2.66699 37.666 4 54.999 4
c48.667 0 93.334 -6.83301 134.001 -20.5s78.834 -27.334 114.501 -41.001s71.5 -20.5 107.5 -20.5c67.333 0 120 19.667 158 59l6 -4l-166 -225c-19.333 -2.66699 -37.666 -4 -54.999 -4c-48.667 0 -93.334 6.83301 -134.001 20.5s-78.834 27.334 -114.501 41.001
s-71.5 20.5 -107.5 20.5c-66.667 0 -119.334 -20 -158.001 -60zM408.001 467h358l-166 451h-8z" />
    <glyph glyph-name="Adieresis" unicode="&#xc4;" horiz-adv-x="1308" 
d="M-31 0v8l103 70l587 1417h9l569 -1417l102 -70v-8h-399l-160 428l-172 -111h-260l-29 -69c-14.667 -38.667 -22 -73.667 -22 -105c0 -67.333 36.333 -112.333 109 -135v-8h-437zM238 1704v8l196 193h8l197 -193v-8c-28 -10 -64.333 -37.167 -109 -81.5
s-74 -81.5 -88 -111.5h-8c-14 30 -43.167 67.167 -87.5 111.5s-80.5 71.5 -108.5 81.5zM408 467h358l-166 451h-8zM688 1704v8l197 193h8l197 -193v-8c-28 -10 -64.333 -37.167 -109 -81.5s-74 -81.5 -88 -111.5h-8c-14 30 -43.333 67.167 -88 111.5s-81 71.5 -109 81.5z
" />
    <glyph glyph-name="Aring" unicode="&#xc5;" horiz-adv-x="1308" 
d="M-31 0v8l103 70l534 1292c-62.667 12.667 -114.834 44.167 -156.501 94.5s-62.5 108.833 -62.5 175.5c0 77.333 26.833 142.833 80.5 196.5s119.167 80.5 196.5 80.5c76.667 0 141.834 -26.833 195.501 -80.5s80.5 -119.167 80.5 -196.5
c0 -100 -45.667 -180.333 -137 -241l-117 69l-6 -6l557 -1384l102 -70v-8h-399l-160 428l-172 -111h-260l-29 -69c-14.667 -38.667 -22 -73.667 -22 -105c0 -67.333 36.333 -112.333 109 -135v-8h-437zM408 467h358l-166 451h-8zM524 1640c0 -39.333 13.5 -73.333 40.5 -102
s60.167 -43 99.5 -43s72.333 14 99 42s40 62.333 40 103c0 40 -13.5 74.333 -40.5 103s-59.833 43 -98.5 43s-71.667 -14.333 -99 -43s-41 -63 -41 -103z" />
    <glyph glyph-name="AE" unicode="&#xc6;" horiz-adv-x="1628" 
d="M-51 0l0.000976562 8.00098l104 72l705 1276l-111 69v9h858v-420h-8c-8.66699 36 -20.667 69.333 -36 100s-35.166 59.667 -59.499 87s-55.5 49 -93.5 65s-80.667 24 -128 24h-115v-477h379v-8l-166 -146h-213v-516h156c46.667 0 89.167 9 127.5 27
s69.666 42.167 93.999 72.5s44.166 61.666 59.499 93.999s27.333 66.833 36 103.5h8v-440h-788v426l-170 -109h-223l-39 -69c-30 -51.333 -45 -96.333 -45 -135c0 -61.333 34.667 -96.333 104 -105v-8h-436zM449.001 467.001h309v537h-8z" />
    <glyph glyph-name="Ccedilla" unicode="&#xc7;" horiz-adv-x="1212" 
d="M92 717c0 110 16.5 211.331 49.5 303.998s78 170.5 135 233.5s124.333 112 202 147s160.5 52.5 248.5 52.5c147.333 0 281.666 -36 402.999 -108l-49 -394h-8c-12 38.667 -24 73.334 -36 104.001s-27.667 63.334 -47 98.001s-39.666 63.5 -60.999 86.5
s-47 42.167 -77 57.5s-62 23 -96 23c-108 0 -189.333 -49.5 -244 -148.5s-82 -244.167 -82 -435.5c0 -416 108 -624 324 -624c43.333 0 82.5 9.83301 117.5 29.5s65.5 48.167 91.5 85.5s48 75.5 66 114.5s36 85.167 54 138.5h9l49 -383
c-111.333 -70 -231.666 -108.667 -360.999 -116l-32 -82l157 -72v-10c0 -96.667 -27 -174.167 -81 -232.5s-118.333 -90.833 -193 -97.5l-2 6c31.333 6 59.666 28.5 84.999 67.5s38 82.167 38 129.5c0 39.333 -9.5 70.333 -28.5 93s-44.5 34 -76.5 34c-16 0 -29 -2 -39 -6
l-2 6l82 162c-86 4.66699 -164.833 23.5 -236.5 56.5s-134.5 79.333 -188.5 139s-96 135.667 -126 228s-45 196.833 -45 313.5z" />
    <glyph glyph-name="Egrave" unicode="&#xc8;" horiz-adv-x="1112" 
d="M92 0l0.000976562 8.00098l113 70v1278l-113 69v9h897v-420h-8c-8.66699 36 -20.667 69.333 -36 100s-35.166 59.667 -59.499 87s-55.5 49 -93.5 65s-80.667 24 -128 24h-152v-477h416v-8l-166 -146h-250v-516h193c46.667 0 89.167 9 127.5 27s69.666 42.167 93.999 72.5
s44.166 61.666 59.499 93.999s27.333 66.833 36 103.5h8v-440h-938zM221.001 1892l2 5.99902h406c9.33301 -47.333 34.5 -104.666 75.5 -171.999s82.5 -118.333 124.5 -153l-6 -6z" />
    <glyph glyph-name="Eacute" unicode="&#xc9;" horiz-adv-x="1112" 
d="M92 0l0.000976562 8.00098l113 70v1278l-113 69v9h897v-420h-8c-8.66699 36 -20.667 69.333 -36 100s-35.166 59.667 -59.499 87s-55.5 49 -93.5 65s-80.667 24 -128 24h-152v-477h416v-8l-166 -146h-250v-516h193c46.667 0 89.167 9 127.5 27s69.666 42.167 93.999 72.5
s44.166 61.666 59.499 93.999s27.333 66.833 36 103.5h8v-440h-938zM346.001 1573c42 34.667 83.668 85.668 125.001 153.001s66.666 124.666 75.999 171.999h405l2 -6l-602 -325z" />
    <glyph glyph-name="Ecircumflex" unicode="&#xca;" horiz-adv-x="1112" 
d="M92 0l0.000976562 8.00098l113 70v1278l-113 69v9h897v-420h-8c-8.66699 36 -20.667 69.333 -36 100s-35.166 59.667 -59.499 87s-55.5 49 -93.5 65s-80.667 24 -128 24h-152v-477h416v-8l-166 -146h-250v-516h193c46.667 0 89.167 9 127.5 27s69.666 42.167 93.999 72.5
s44.166 61.666 59.499 93.999s27.333 66.833 36 103.5h8v-440h-938zM207.001 1593c40.667 26.667 94.833 72.168 162.5 136.501s118.5 120.5 152.5 168.5h131c34 -47.333 85.167 -103.333 153.5 -168s122.5 -110.334 162.5 -137.001l-4 -6l-377 119l-377 -119z" />
    <glyph glyph-name="Edieresis" unicode="&#xcb;" horiz-adv-x="1112" 
d="M92 0l0.000976562 8.00098l113 70v1278l-113 69v9h897v-420h-8c-8.66699 36 -20.667 69.333 -36 100s-35.166 59.667 -59.499 87s-55.5 49 -93.5 65s-80.667 24 -128 24h-152v-477h416v-8l-166 -146h-250v-516h193c46.667 0 89.167 9 127.5 27s69.666 42.167 93.999 72.5
s44.166 61.666 59.499 93.999s27.333 66.833 36 103.5h8v-440h-938zM162.001 1704v8l196 193h9l196 -193v-8c-28 -10 -64.167 -37.167 -108.5 -81.5s-73.5 -81.5 -87.5 -111.5h-9c-14 30 -43.167 67.167 -87.5 111.5s-80.5 71.5 -108.5 81.5zM612.001 1704v8l197 193h8
l197 -193v-8c-28 -10 -64.333 -37.167 -109 -81.5s-74 -81.5 -88 -111.5h-8c-14 30 -43.333 67.167 -88 111.5s-81 71.5 -109 81.5z" />
    <glyph glyph-name="Igrave" unicode="&#xcc;" horiz-adv-x="716" 
d="M-8 1892l2.00098 5.99902h405c9.33301 -47.333 34.666 -104.666 75.999 -171.999s83 -118.333 125 -153l-6 -6zM92.001 1425v9h533v-9l-113 -69v-1571h-8c-29.333 43.333 -71 85.5 -125 126.5s-112 70.5 -174 88.5v1356z" />
    <glyph glyph-name="Iacute" unicode="&#xcd;" horiz-adv-x="716" 
d="M92 1425v9h533v-9l-113 -69v-1571h-8c-29.333 43.333 -71 85.5 -125 126.5s-112 70.5 -174 88.5v1356zM117 1573c42 34.667 83.5 85.668 124.5 153.001s66.167 124.666 75.5 171.999h406l2 -6l-602 -325z" />
    <glyph glyph-name="Icircumflex" unicode="&#xce;" horiz-adv-x="716" 
d="M-23 1593c40.667 27.333 95 73.001 163 137.001s119 120 153 168h131c34 -47.333 85 -103.333 153 -168s122 -110.334 162 -137.001l-4 -6l-377 119l-376 -119zM92 1425v9h533v-9l-113 -69v-1571h-8c-29.333 43.333 -71 85.5 -125 126.5s-112 70.5 -174 88.5v1356z" />
    <glyph glyph-name="Idieresis" unicode="&#xcf;" horiz-adv-x="716" 
d="M-68 1704v8l197 193h8l197 -193v-8c-28 -10 -64.333 -37.167 -109 -81.5s-74 -81.5 -88 -111.5h-8c-14 30 -43.333 67.167 -88 111.5s-81 71.5 -109 81.5zM92 1425v9h533v-9l-113 -69v-1571h-8c-29.333 43.333 -71 85.5 -125 126.5s-112 70.5 -174 88.5v1356zM383 1704v8
l197 193h8l196 -193v-8c-28 -10 -64.167 -37.167 -108.5 -81.5s-73.5 -81.5 -87.5 -111.5h-8c-14 30 -43.333 67.167 -88 111.5s-81 71.5 -109 81.5z" />
    <glyph glyph-name="Eth" unicode="&#xd0;" horiz-adv-x="1427" 
d="M-31 659v9l166 145h70v379h254v8l-367 225v9h563c138.667 0 259.5 -30 362.5 -90s181.667 -144 236 -252s81.5 -233 81.5 -375c0 -228 -60.167 -404.5 -180.5 -529.5s-286.833 -187.5 -499.5 -187.5h-563v8l113 70v581h-236zM512 133h142.999c116 0 202 48.167 258 144.5
s84 242.833 84 439.5c0 204 -27.667 352.167 -83 444.5s-141.666 138.5 -258.999 138.5h-143v-487h358v-8l-165 -146h-193v-526z" />
    <glyph glyph-name="Ntilde" unicode="&#xd1;" horiz-adv-x="1382" 
d="M51 1425l-0.00195312 8.99902h395l549 -807h9v542c0 39.333 -2.33301 72.5 -7 99.5s-10.834 49.167 -18.501 66.5s-19.667 31.833 -36 43.5s-33.166 20.667 -50.499 27s-41 12.833 -71 19.5v9h469v-9l-112 -69v-1471h-9l-782 1127h-8v-748
c0 -49.333 2.83301 -88.833 8.5 -118.5s16.834 -53.667 33.501 -72s34.834 -31.666 54.501 -39.999s48.167 -16.833 85.5 -25.5v-8h-469v8l113 70v1200l-51 78zM325.998 1665l165.998 225c19.333 2.66699 37.666 4 54.999 4c48.667 0 93.334 -6.83301 134.001 -20.5
s78.834 -27.334 114.501 -41.001s71.5 -20.5 107.5 -20.5c66.667 0 119.334 20 158.001 60l6 -4l-166 -226c-19.333 -2.66699 -37.666 -4 -54.999 -4c-48.667 0 -93.334 6.83301 -134.001 20.5s-79 27.334 -115 41.001s-72 20.5 -108 20.5c-66.667 0 -119 -19.667 -157 -59z
" />
    <glyph glyph-name="Ograve" unicode="&#xd2;" horiz-adv-x="1470" 
d="M92 717c0 114.667 16.8311 218.833 50.498 312.5s79.667 171.167 138 232.5s126.5 108.666 204.5 141.999s162 50 252 50c38.667 0 73.667 -2.66699 105 -8l-99 -422h-10l-65 289c-158.667 -42.667 -238 -241.334 -238 -596.001c0 -402.667 101.667 -604 305 -604
s305 201.333 305 604c0 244.667 -37.333 415.334 -112 512.001l53 178c122 -49.333 218.667 -133.666 290 -252.999s107 -265 107 -437c0 -114.667 -16.667 -218.834 -50 -312.501s-79.166 -171.167 -137.499 -232.5s-126.333 -108.666 -204 -141.999s-161.5 -50 -251.5 -50
s-173.833 16.667 -251.5 50s-145.667 80.666 -204 141.999s-104.166 138.833 -137.499 232.5s-50 197.834 -50 312.501zM368.998 1892l2.00098 5.99902h405c9.33301 -47.333 34.666 -104.666 75.999 -171.999s83 -118.333 125 -153l-6 -6z" />
    <glyph glyph-name="Oacute" unicode="&#xd3;" horiz-adv-x="1470" 
d="M92 717c0 114.667 16.8311 218.833 50.498 312.5s79.667 171.167 138 232.5s126.5 108.666 204.5 141.999s162 50 252 50c38.667 0 73.667 -2.66699 105 -8l-99 -422h-10l-65 289c-158.667 -42.667 -238 -241.334 -238 -596.001c0 -402.667 101.667 -604 305 -604
s305 201.333 305 604c0 244.667 -37.333 415.334 -112 512.001l53 178c122 -49.333 218.667 -133.666 290 -252.999s107 -265 107 -437c0 -114.667 -16.667 -218.834 -50 -312.501s-79.166 -171.167 -137.499 -232.5s-126.333 -108.666 -204 -141.999s-161.5 -50 -251.5 -50
s-173.833 16.667 -251.5 50s-145.667 80.666 -204 141.999s-104.166 138.833 -137.499 232.5s-50 197.834 -50 312.501zM493.998 1573c42 34.667 83.5 85.668 124.5 153.001s66.167 124.666 75.5 171.999h406l2 -6l-602 -325z" />
    <glyph glyph-name="Ocircumflex" unicode="&#xd4;" horiz-adv-x="1470" 
d="M92 717c0 114.667 16.8311 218.833 50.498 312.5s79.667 171.167 138 232.5s126.5 108.666 204.5 141.999s162 50 252 50c38.667 0 73.667 -2.66699 105 -8l-99 -422h-10l-65 289c-158.667 -42.667 -238 -241.334 -238 -596.001c0 -402.667 101.667 -604 305 -604
s305 201.333 305 604c0 244.667 -37.333 415.334 -112 512.001l53 178c122 -49.333 218.667 -133.666 290 -252.999s107 -265 107 -437c0 -114.667 -16.667 -218.834 -50 -312.501s-79.166 -171.167 -137.499 -232.5s-126.333 -108.666 -204 -141.999s-161.5 -50 -251.5 -50
s-173.833 16.667 -251.5 50s-145.667 80.666 -204 141.999s-104.166 138.833 -137.499 232.5s-50 197.834 -50 312.501zM353.998 1593c40.667 27.333 95 73.001 163 137.001s119 120 153 168h131c34 -47.333 85 -103.333 153 -168s122 -110.334 162 -137.001l-4 -6l-377 119
l-377 -119z" />
    <glyph glyph-name="Otilde" unicode="&#xd5;" horiz-adv-x="1470" 
d="M92 717c0 114.667 16.8311 218.833 50.498 312.5s79.667 171.167 138 232.5s126.5 108.666 204.5 141.999s162 50 252 50c38.667 0 73.667 -2.66699 105 -8l-99 -422h-10l-65 289c-158.667 -42.667 -238 -241.334 -238 -596.001c0 -402.667 101.667 -604 305 -604
s305 201.333 305 604c0 244.667 -37.333 415.334 -112 512.001l53 178c122 -49.333 218.667 -133.666 290 -252.999s107 -265 107 -437c0 -114.667 -16.667 -218.834 -50 -312.501s-79.166 -171.167 -137.499 -232.5s-126.333 -108.666 -204 -141.999s-161.5 -50 -251.5 -50
s-173.833 16.667 -251.5 50s-145.667 80.666 -204 141.999s-104.166 138.833 -137.499 232.5s-50 197.834 -50 312.501zM364.998 1665l164.997 225c19.333 2.66699 38 4 56 4c48.667 0 93.334 -6.83301 134.001 -20.5s78.834 -27.334 114.501 -41.001
s71.5 -20.5 107.5 -20.5c66.667 0 119.334 20 158.001 60l6 -4l-166 -226c-19.333 -2.66699 -37.666 -4 -54.999 -4c-48.667 0 -93.334 6.83301 -134.001 20.5s-79 27.334 -115 41.001s-72 20.5 -108 20.5c-66.667 0 -119 -19.667 -157 -59z" />
    <glyph glyph-name="Odieresis" unicode="&#xd6;" horiz-adv-x="1470" 
d="M92 717c0 114.667 16.8311 218.833 50.498 312.5s79.667 171.167 138 232.5s126.5 108.666 204.5 141.999s162 50 252 50c38.667 0 73.667 -2.66699 105 -8l-99 -422h-10l-65 289c-158.667 -42.667 -238 -241.334 -238 -596.001c0 -402.667 101.667 -604 305 -604
s305 201.333 305 604c0 244.667 -37.333 415.334 -112 512.001l53 178c122 -49.333 218.667 -133.666 290 -252.999s107 -265 107 -437c0 -114.667 -16.667 -218.834 -50 -312.501s-79.166 -171.167 -137.499 -232.5s-126.333 -108.666 -204 -141.999s-161.5 -50 -251.5 -50
s-173.833 16.667 -251.5 50s-145.667 80.666 -204 141.999s-104.166 138.833 -137.499 232.5s-50 197.834 -50 312.501zM308.998 1704v8l197 193h8l197 -193v-8c-28 -10 -64.333 -37.167 -109 -81.5s-74 -81.5 -88 -111.5h-8c-14 30 -43.333 67.167 -88 111.5
s-81 71.5 -109 81.5zM759.998 1704v8l196 193h9l196 -193v-8c-28 -10 -64.167 -37.167 -108.5 -81.5s-73.5 -81.5 -87.5 -111.5h-9c-14 30 -43.167 67.167 -87.5 111.5s-80.5 71.5 -108.5 81.5z" />
    <glyph glyph-name="multiply" unicode="&#xd7;" 
d="M158 379l331 326l-329 325l147 148l326 -330l325 332l154 -154l-332 -326l330 -325l-147 -148l-326 330l-326 -332z" />
    <glyph glyph-name="Oslash" unicode="&#xd8;" horiz-adv-x="1470" 
d="M92 -14l161.999 215.001c-108 135.333 -162 307.333 -162 516c0 114.667 16.833 218.834 50.5 312.501s79.667 171.167 138 232.5s126.5 108.666 204.5 141.999s162 50 252 50c38.667 0 73.667 -2.66699 105 -8l-99 -422h-10l-65 289
c-158.667 -42.667 -238 -241.334 -238 -596.001c0 -95.333 6.33301 -182 19 -260l524 694c-9.33301 22 -24.333 48 -45 78l53 178c48.667 -22 91.667 -46.667 129 -74l92 121h172l4 -6l-164 -215c109.333 -134 164 -306 164 -516c0 -114.667 -16.667 -218.834 -50 -312.501
s-79.166 -171.167 -137.499 -232.5s-126.333 -108.666 -204 -141.999s-161.5 -50 -251.5 -50c-145.333 0 -271 40 -377 120l-90 -120h-172zM495.999 283.001c50.667 -113.333 130.333 -170 239 -170c203.333 0 305 201.333 305 604c0 101.333 -6 188 -18 260z" />
    <glyph glyph-name="Ugrave" unicode="&#xd9;" horiz-adv-x="1320" 
d="M72 1425l-0.00195312 9.00293h420v-1004c0 -198 81 -297 243 -297c78 0 138.833 25.333 182.5 76s65.5 134.667 65.5 252v719c0 44.667 -4.16699 82.667 -12.5 114s-20.666 55.5 -36.999 72.5s-32.166 29.5 -47.499 37.5s-34.333 15 -57 21v9h441v-9l-113 -69v-885
c0 -73.333 -8.66699 -138.5 -26 -195.5s-40.5 -103.833 -69.5 -140.5s-64.333 -66.834 -106 -90.501s-85.334 -40.334 -131.001 -50.001s-95.167 -14.5 -148.5 -14.5c-48 0 -92.833 3.66699 -134.5 11s-85.167 22.166 -130.5 44.499s-84.166 51.166 -116.499 86.499
s-58.833 83.833 -79.5 145.5s-31 132.834 -31 213.501v875zM368.998 1892l2.00098 5.99902h405c9.33301 -47.333 34.666 -104.666 75.999 -171.999s83 -118.333 125 -153l-6 -6z" />
    <glyph glyph-name="Uacute" unicode="&#xda;" horiz-adv-x="1320" 
d="M72 1425l-0.00195312 9.00293h420v-1004c0 -198 81 -297 243 -297c78 0 138.833 25.333 182.5 76s65.5 134.667 65.5 252v719c0 44.667 -4.16699 82.667 -12.5 114s-20.666 55.5 -36.999 72.5s-32.166 29.5 -47.499 37.5s-34.333 15 -57 21v9h441v-9l-113 -69v-885
c0 -73.333 -8.66699 -138.5 -26 -195.5s-40.5 -103.833 -69.5 -140.5s-64.333 -66.834 -106 -90.501s-85.334 -40.334 -131.001 -50.001s-95.167 -14.5 -148.5 -14.5c-48 0 -92.833 3.66699 -134.5 11s-85.167 22.166 -130.5 44.499s-84.166 51.166 -116.499 86.499
s-58.833 83.833 -79.5 145.5s-31 132.834 -31 213.501v875zM493.998 1573c42 34.667 83.5 85.668 124.5 153.001s66.167 124.666 75.5 171.999h406l2 -6l-602 -325z" />
    <glyph glyph-name="Ucircumflex" unicode="&#xdb;" horiz-adv-x="1320" 
d="M72 1425l-0.00195312 9.00293h420v-1004c0 -198 81 -297 243 -297c78 0 138.833 25.333 182.5 76s65.5 134.667 65.5 252v719c0 44.667 -4.16699 82.667 -12.5 114s-20.666 55.5 -36.999 72.5s-32.166 29.5 -47.499 37.5s-34.333 15 -57 21v9h441v-9l-113 -69v-885
c0 -73.333 -8.66699 -138.5 -26 -195.5s-40.5 -103.833 -69.5 -140.5s-64.333 -66.834 -106 -90.501s-85.334 -40.334 -131.001 -50.001s-95.167 -14.5 -148.5 -14.5c-48 0 -92.833 3.66699 -134.5 11s-85.167 22.166 -130.5 44.499s-84.166 51.166 -116.499 86.499
s-58.833 83.833 -79.5 145.5s-31 132.834 -31 213.501v875zM353.998 1593c40.667 27.333 95 73.001 163 137.001s119 120 153 168h131c34 -47.333 85 -103.333 153 -168s122 -110.334 162 -137.001l-4 -6l-377 119l-377 -119z" />
    <glyph glyph-name="Udieresis" unicode="&#xdc;" horiz-adv-x="1320" 
d="M72 1425l-0.00195312 9.00293h420v-1004c0 -198 81 -297 243 -297c78 0 138.833 25.333 182.5 76s65.5 134.667 65.5 252v719c0 44.667 -4.16699 82.667 -12.5 114s-20.666 55.5 -36.999 72.5s-32.166 29.5 -47.499 37.5s-34.333 15 -57 21v9h441v-9l-113 -69v-885
c0 -73.333 -8.66699 -138.5 -26 -195.5s-40.5 -103.833 -69.5 -140.5s-64.333 -66.834 -106 -90.501s-85.334 -40.334 -131.001 -50.001s-95.167 -14.5 -148.5 -14.5c-48 0 -92.833 3.66699 -134.5 11s-85.167 22.166 -130.5 44.499s-84.166 51.166 -116.499 86.499
s-58.833 83.833 -79.5 145.5s-31 132.834 -31 213.501v875zM308.998 1704v8l197 193h8l197 -193v-8c-28 -10 -64.333 -37.167 -109 -81.5s-74 -81.5 -88 -111.5h-8c-14 30 -43.333 67.167 -88 111.5s-81 71.5 -109 81.5zM759.998 1704v8l196 193h9l196 -193v-8
c-28 -10 -64.167 -37.167 -108.5 -81.5s-73.5 -81.5 -87.5 -111.5h-9c-14 30 -43.167 67.167 -87.5 111.5s-80.5 71.5 -108.5 81.5z" />
    <glyph glyph-name="Yacute" unicode="&#xdd;" horiz-adv-x="1228" 
d="M-20 1425l0.00390625 9h419l287 -598h8l172 340c28.667 58 43 105.667 43 143c0 64 -38.667 99.333 -116 106v9h456v-9l-125 -59l-352 -707v-415c0 -32 3.66699 -61 11 -87s16.666 -47 27.999 -63s25.166 -30.167 41.499 -42.5s31.666 -21.5 45.999 -27.5
s30.166 -11.333 47.499 -16v-8h-655v8l174 70v553l-361 735zM414.004 1538c42 34.667 83.5 85.833 124.5 153.5s66.167 125.167 75.5 172.5h406l2 -6l-602 -326z" />
    <glyph glyph-name="Thorn" unicode="&#xde;" horiz-adv-x="1208" 
d="M92 0l0.00488281 8l113 70v1278l-113 69v9h574v-9l-154 -69v-189h154c101.333 0 190.666 -14.5 267.999 -43.5s139 -73.833 185 -134.5s69 -133.667 69 -219c0 -67.333 -13.333 -128 -40 -182s-62.834 -98.333 -108.501 -133s-98.167 -61.167 -157.5 -79.5
s-122.666 -27.5 -189.999 -27.5h-8l-172 111v-215c0 -32 3.66699 -61 11 -87s16.666 -47 27.999 -63s25.166 -30.167 41.499 -42.5s31.666 -21.5 45.999 -27.5s30.166 -11.333 47.499 -16v-8h-594zM512.005 492h104c162.667 0 244 89.333 244 268c0 92 -21.667 159 -65 201
s-114.333 63 -213 63h-70v-532z" />
    <glyph glyph-name="germandbls" unicode="&#xdf;" horiz-adv-x="1286" 
d="M31 901l-0.000976562 7.99609c35.333 20.667 60.833 36 76.5 46s32.834 23.5 51.501 40.5s32.667 35.167 42 54.5s17.333 43.333 24 72c15.333 66.667 35.666 124.5 60.999 173.5s51.833 87.333 79.5 115s59.167 49.667 94.5 66s67.666 27 96.999 32s61.333 7.5 96 7.5
c54.667 0 106.167 -9 154.5 -27s89 -46.5 122 -85.5s49.5 -84.833 49.5 -137.5c0 -40.667 -6 -80.5 -18 -119.5s-25.167 -71.5 -39.5 -97.5s-27.5 -58.167 -39.5 -96.5s-18 -77.833 -18 -118.5c0 -26.667 6.33301 -52 19 -76s28.834 -45.333 48.501 -64
s41.667 -37.667 66 -57l73 -61c24.333 -21.333 46.333 -44.333 66 -69s35.834 -54.167 48.501 -88.5s19 -71.5 19 -111.5c0 -98 -30.833 -177 -92.5 -237s-148.834 -90 -261.501 -90c-82 0 -162 14.333 -240 43l23 292h8c15.333 -37.333 33 -71.666 53 -102.999
s45.333 -59.166 76 -83.499s62 -36.5 94 -36.5c24.667 0 46.167 10.333 64.5 31s27.5 48.667 27.5 84c0 28 -6 54 -18 78s-27.5 45.333 -46.5 64s-40.167 37.167 -63.5 55.5s-46.5 38 -69.5 59s-44 43.333 -63 67s-34.5 52.834 -46.5 87.501s-18 72.334 -18 113.001
c0 36.667 6 74.667 18 114s26.5 76.166 43.5 110.499l51 101.5c17 33.333 31.5 68.333 43.5 105s18 71.334 18 104.001c0 42.667 -13.167 76.167 -39.5 100.5s-60.166 36.5 -101.499 36.5c-108 0 -162 -74.333 -162 -223v-1180h-410v8l113 70v823h-174z" />
    <glyph glyph-name="agrave" unicode="&#xe0;" horiz-adv-x="1046" 
d="M51 248c0 61.333 14.501 115.5 43.501 162.5s69.667 84.5 122 112.5s111.833 49 178.5 63s140.334 21.333 221.001 22v68c0 90 -10.667 155.167 -32 195.5s-57 60.5 -107 60.5c-42 0 -75.667 -14.333 -101 -43s-38 -67 -38 -115c0 -40.667 4.66699 -72.667 14 -96l-6 -6
l-266 164c41.333 63.333 97.666 113.833 168.999 151.5s155 56.5 251 56.5c68 0 126.5 -6 175.5 -18s91.833 -32 128.5 -60s64 -66.5 82 -115.5s27 -109.167 27 -180.5v-592l113 -70v-8h-410v113c-76.667 -88.667 -169.334 -133 -278.001 -133
c-84.667 0 -153.667 22.833 -207 68.5s-80 112.167 -80 199.5zM133.001 1501l2 5.99902h406c9.33301 -47.333 34.5 -104.666 75.5 -171.999s82.5 -118.333 124.5 -153l-6 -6zM338.001 267.999c0 -44.667 10.832 -76.666 32.499 -95.999s46.834 -29 75.501 -29
c60 0 116.667 34.333 170 103v250c-94 -2 -163.833 -20.333 -209.5 -55s-68.5 -92.334 -68.5 -173.001z" />
    <glyph glyph-name="aacute" unicode="&#xe1;" horiz-adv-x="1046" 
d="M51 248c0 61.333 14.501 115.5 43.501 162.5s69.667 84.5 122 112.5s111.833 49 178.5 63s140.334 21.333 221.001 22v68c0 90 -10.667 155.167 -32 195.5s-57 60.5 -107 60.5c-42 0 -75.667 -14.333 -101 -43s-38 -67 -38 -115c0 -40.667 4.66699 -72.667 14 -96l-6 -6
l-266 164c41.333 63.333 97.666 113.833 168.999 151.5s155 56.5 251 56.5c68 0 126.5 -6 175.5 -18s91.833 -32 128.5 -60s64 -66.5 82 -115.5s27 -109.167 27 -180.5v-592l113 -70v-8h-410v113c-76.667 -88.667 -169.334 -133 -278.001 -133
c-84.667 0 -153.667 22.833 -207 68.5s-80 112.167 -80 199.5zM258.001 1182c42 34.667 83.668 85.668 125.001 153.001s66.666 124.666 75.999 171.999h405l2 -6l-602 -325zM338.002 268.001c0 -44.667 10.832 -76.666 32.499 -95.999s46.834 -29 75.501 -29
c60 0 116.667 34.333 170 103v250c-94 -2 -163.833 -20.333 -209.5 -55s-68.5 -92.334 -68.5 -173.001z" />
    <glyph glyph-name="acircumflex" unicode="&#xe2;" horiz-adv-x="1046" 
d="M51 248c0 61.333 14.501 115.5 43.501 162.5s69.667 84.5 122 112.5s111.833 49 178.5 63s140.334 21.333 221.001 22v68c0 90 -10.667 155.167 -32 195.5s-57 60.5 -107 60.5c-42 0 -75.667 -14.333 -101 -43s-38 -67 -38 -115c0 -40.667 4.66699 -72.667 14 -96l-6 -6
l-266 164c41.333 63.333 97.666 113.833 168.999 151.5s155 56.5 251 56.5c68 0 126.5 -6 175.5 -18s91.833 -32 128.5 -60s64 -66.5 82 -115.5s27 -109.167 27 -180.5v-592l113 -70v-8h-410v113c-76.667 -88.667 -169.334 -133 -278.001 -133
c-84.667 0 -153.667 22.833 -207 68.5s-80 112.167 -80 199.5zM119.001 1202c40.667 26.667 94.833 72.168 162.5 136.501s118.5 120.5 152.5 168.5h131c34 -47.333 85.167 -103.333 153.5 -168s122.5 -110.334 162.5 -137.001l-4 -6l-377 119l-377 -119zM338 268.001
c0 -44.667 10.832 -76.666 32.499 -95.999s46.834 -29 75.501 -29c60 0 116.667 34.333 170 103v250c-94 -2 -163.833 -20.333 -209.5 -55s-68.5 -92.334 -68.5 -173.001z" />
    <glyph glyph-name="atilde" unicode="&#xe3;" horiz-adv-x="1046" 
d="M51 248c0 61.333 14.501 115.5 43.501 162.5s69.667 84.5 122 112.5s111.833 49 178.5 63s140.334 21.333 221.001 22v68c0 90 -10.667 155.167 -32 195.5s-57 60.5 -107 60.5c-42 0 -75.667 -14.333 -101 -43s-38 -67 -38 -115c0 -40.667 4.66699 -72.667 14 -96l-6 -6
l-266 164c41.333 63.333 97.666 113.833 168.999 151.5s155 56.5 251 56.5c68 0 126.5 -6 175.5 -18s91.833 -32 128.5 -60s64 -66.5 82 -115.5s27 -109.167 27 -180.5v-592l113 -70v-8h-410v113c-76.667 -88.667 -169.334 -133 -278.001 -133
c-84.667 0 -153.667 22.833 -207 68.5s-80 112.167 -80 199.5zM129.001 1274l166.002 225c19.333 2.66699 37.666 4 54.999 4c48.667 0 93.334 -6.83301 134.001 -20.5s79 -27.334 115 -41.001s72 -20.5 108 -20.5c66 0 118.333 20 157 60l6 -4l-165 -226
c-19.333 -2.66699 -38 -4 -56 -4c-48.667 0 -93.334 6.83301 -134.001 20.5s-78.834 27.334 -114.501 41.001s-71.5 20.5 -107.5 20.5c-67.333 0 -120 -19.667 -158 -59zM338.003 268c0 -44.667 10.832 -76.666 32.499 -95.999s46.834 -29 75.501 -29
c60 0 116.667 34.333 170 103v250c-94 -2 -163.833 -20.333 -209.5 -55s-68.5 -92.334 -68.5 -173.001z" />
    <glyph glyph-name="adieresis" unicode="&#xe4;" horiz-adv-x="1046" 
d="M51 248c0 61.333 14.501 115.5 43.501 162.5s69.667 84.5 122 112.5s111.833 49 178.5 63s140.334 21.333 221.001 22v68c0 90 -10.667 155.167 -32 195.5s-57 60.5 -107 60.5c-42 0 -75.667 -14.333 -101 -43s-38 -67 -38 -115c0 -40.667 4.66699 -72.667 14 -96l-6 -6
l-266 164c41.333 63.333 97.666 113.833 168.999 151.5s155 56.5 251 56.5c68 0 126.5 -6 175.5 -18s91.833 -32 128.5 -60s64 -66.5 82 -115.5s27 -109.167 27 -180.5v-592l113 -70v-8h-410v113c-76.667 -88.667 -169.334 -133 -278.001 -133
c-84.667 0 -153.667 22.833 -207 68.5s-80 112.167 -80 199.5zM74.001 1315v8l196 193h9l196 -193v-8c-28 -10 -64.167 -37.167 -108.5 -81.5s-73.5 -81.5 -87.5 -111.5h-9c-14 30 -43.167 67.167 -87.5 111.5s-80.5 71.5 -108.5 81.5zM338.001 268
c0 -44.667 10.832 -76.666 32.499 -95.999s46.834 -29 75.501 -29c60 0 116.667 34.333 170 103v250c-94 -2 -163.833 -20.333 -209.5 -55s-68.5 -92.334 -68.5 -173.001zM524 1315v8l197 193h8l197 -193v-8c-28 -10 -64.333 -37.167 -109 -81.5s-74 -81.5 -88 -111.5h-8
c-14 30 -43.333 67.167 -88 111.5s-81 71.5 -109 81.5z" />
    <glyph glyph-name="aring" unicode="&#xe5;" horiz-adv-x="1046" 
d="M51 248c0 61.333 14.501 115.5 43.501 162.5s69.667 84.5 122 112.5s111.833 49 178.5 63s140.334 21.333 221.001 22v68c0 90 -10.667 155.167 -32 195.5s-57 60.5 -107 60.5c-42 0 -75.667 -14.333 -101 -43s-38 -67 -38 -115c0 -40.667 4.66699 -72.667 14 -96l-6 -6
l-266 164c41.333 63.333 97.666 113.833 168.999 151.5s155 56.5 251 56.5c68 0 126.5 -6 175.5 -18s91.833 -32 128.5 -60s64 -66.5 82 -115.5s27 -109.167 27 -180.5v-592l113 -70v-8h-410v113c-76.667 -88.667 -169.334 -133 -278.001 -133
c-84.667 0 -153.667 22.833 -207 68.5s-80 112.167 -80 199.5zM272.001 1386c0 63.333 22.332 116.5 66.999 159.5s98.334 64.5 161.001 64.5s116.167 -21.5 160.5 -64.5s66.5 -96.167 66.5 -159.5c0 -64 -21.833 -117.5 -65.5 -160.5s-97.5 -64.5 -161.5 -64.5
s-118 21.5 -162 64.5s-66 96.5 -66 160.5zM338 268c0 -44.667 10.832 -76.666 32.499 -95.999s46.834 -29 75.501 -29c60 0 116.667 34.333 170 103v250c-94 -2 -163.833 -20.333 -209.5 -55s-68.5 -92.334 -68.5 -173.001zM384.999 1386
c0 -35.333 10.833 -64.167 32.5 -86.5s49.167 -33.5 82.5 -33.5s60.666 11 81.999 33s32 51 32 87s-10.667 65.167 -32 87.5s-48.666 33.5 -81.999 33.5s-60.833 -11.167 -82.5 -33.5s-32.5 -51.5 -32.5 -87.5z" />
    <glyph glyph-name="ae" unicode="&#xe6;" horiz-adv-x="1597" 
d="M51 248c0 61.333 14.5 115.501 43.5 162.501s69.667 84.5 122 112.5s111.833 49 178.5 63s140.334 21.333 221.001 22v68c0 90 -10.667 155.167 -32 195.5s-57 60.5 -107 60.5c-42 0 -75.667 -14.333 -101 -43s-38 -67 -38 -115c0 -40.667 4.66699 -72.667 14 -96l-6 -6
l-266 164c41.333 63.333 97.666 113.833 168.999 151.5s155 56.5 251 56.5c146.667 0 250.334 -34.667 311.001 -104c88 69.333 192.333 104 313 104c127.333 0 229.5 -38.833 306.5 -116.5s115.5 -179.834 115.5 -306.501v-99h-487l-125 86c-1.33301 -18 -2 -46.667 -2 -86
c0 -280 78.333 -420 235 -420c110 0 202.333 38.333 277 115l63 -59c-88.667 -118.667 -216.334 -178 -383.001 -178c-98 0 -184.5 18.667 -259.5 56s-133.833 91 -176.5 161h-8c-94.667 -144.667 -208.667 -217 -342 -217c-84.667 0 -153.667 22.833 -207 68.5
s-80 112.167 -80 199.5zM338 268.001c0 -44.667 10.8301 -76.665 32.4971 -95.998s46.834 -29 75.501 -29c36.667 0 73.334 13.833 110.001 41.5s66.334 63.167 89.001 106.5c-19.333 67.333 -29 135.666 -29 204.999c-94 -2 -163.833 -20.333 -209.5 -55
s-68.5 -92.334 -68.5 -173.001zM935.997 635.003h266c34.667 0 59.667 8.5 75 25.5s23 42.5 23 76.5c0 56 -14.5 102.5 -43.5 139.5s-67.5 55.5 -115.5 55.5c-118.667 0 -187 -99 -205 -297z" />
    <glyph glyph-name="ccedilla" unicode="&#xe7;" horiz-adv-x="1007" 
d="M61 492c0 84.667 13.3271 162.167 39.9941 232.5s63.167 128.5 109.5 174.5s100.333 81.667 162 107s127.834 38 198.501 38c96 0 180.333 -22.167 253 -66.5s120.334 -101.833 143.001 -172.5l-283 -174l-6 6c22 45.333 33 91 33 137c0 44.667 -11 82.167 -33 112.5
s-54.667 45.5 -98 45.5c-63.333 0 -112.666 -35.333 -147.999 -106s-53 -172 -53 -304c0 -280 78.333 -420 235 -420c101.333 0 190.333 38.333 267 115l63 -59c-83.333 -106 -192.666 -164.667 -327.999 -176l-34 -82l168 -72v-10c0 -96 -28.667 -173.333 -86 -232
s-123.666 -91.334 -198.999 -98.001l-2 6c32 6 60.5 27.5 85.5 64.5s37.5 79.167 37.5 126.5c0 40.667 -10 73 -30 97s-48.333 36 -85 36c-16 0 -29 -2 -39 -6l-2 6l84 164c-137.333 12 -247.166 62.333 -329.499 151s-123.5 208.334 -123.5 359.001z" />
    <glyph glyph-name="egrave" unicode="&#xe8;" horiz-adv-x="1044" 
d="M61 492c0 84.667 13.333 162.168 40 232.501s63.167 128.5 109.5 174.5s100.333 81.667 162 107s127.834 38 198.501 38c127.333 0 229.5 -38.833 306.5 -116.5s115.5 -179.834 115.5 -306.501v-99h-487l-125 86c-1.33301 -18 -2 -46.667 -2 -86
c0 -280 78.333 -420 235 -420c110 0 202.333 38.333 277 115l63 -59c-89.333 -118.667 -217 -178 -383 -178c-154.667 0 -278.334 45 -371.001 135s-139 215.667 -139 377zM205 1503l2.00098 5.99902h405c9.33301 -47.333 34.666 -104.666 75.999 -171.999
s83 -118.333 125 -153l-6 -6zM383.001 635h266.001c35.333 0 60.666 8.5 75.999 25.5s23 42.5 23 76.5c0 56 -14.667 102.5 -44 139.5s-68 55.5 -116 55.5c-118.667 0 -187 -99 -205 -297z" />
    <glyph glyph-name="eacute" unicode="&#xe9;" horiz-adv-x="1044" 
d="M61 492c0 84.667 13.333 162.168 40 232.501s63.167 128.5 109.5 174.5s100.333 81.667 162 107s127.834 38 198.501 38c127.333 0 229.5 -38.833 306.5 -116.5s115.5 -179.834 115.5 -306.501v-99h-487l-125 86c-1.33301 -18 -2 -46.667 -2 -86
c0 -280 78.333 -420 235 -420c110 0 202.333 38.333 277 115l63 -59c-89.333 -118.667 -217 -178 -383 -178c-154.667 0 -278.334 45 -371.001 135s-139 215.667 -139 377zM330 1184c42 34.667 83.5 85.668 124.5 153.001s66.167 124.666 75.5 171.999h406l2 -6l-602 -325z
M383 635.002h266.001c35.333 0 60.666 8.5 75.999 25.5s23 42.5 23 76.5c0 56 -14.667 102.5 -44 139.5s-68 55.5 -116 55.5c-118.667 0 -187 -99 -205 -297z" />
    <glyph glyph-name="ecircumflex" unicode="&#xea;" horiz-adv-x="1044" 
d="M61 492c0 84.667 13.333 162.168 40 232.501s63.167 128.5 109.5 174.5s100.333 81.667 162 107s127.834 38 198.501 38c127.333 0 229.5 -38.833 306.5 -116.5s115.5 -179.834 115.5 -306.501v-99h-487l-125 86c-1.33301 -18 -2 -46.667 -2 -86
c0 -280 78.333 -420 235 -420c110 0 202.333 38.333 277 115l63 -59c-89.333 -118.667 -217 -178 -383 -178c-154.667 0 -278.334 45 -371.001 135s-139 215.667 -139 377zM190 1204c40.667 27.333 95 73.001 163 137.001s119 120 153 168h131
c34 -47.333 85 -103.333 153 -168s122 -110.334 162 -137.001l-4 -6l-377 119l-376 -119zM383 635.002h266.001c35.333 0 60.666 8.5 75.999 25.5s23 42.5 23 76.5c0 56 -14.667 102.5 -44 139.5s-68 55.5 -116 55.5c-118.667 0 -187 -99 -205 -297z" />
    <glyph glyph-name="edieresis" unicode="&#xeb;" horiz-adv-x="1044" 
d="M61 492c0 84.667 13.333 162.168 40 232.501s63.167 128.5 109.5 174.5s100.333 81.667 162 107s127.834 38 198.501 38c127.333 0 229.5 -38.833 306.5 -116.5s115.5 -179.834 115.5 -306.501v-99h-487l-125 86c-1.33301 -18 -2 -46.667 -2 -86
c0 -280 78.333 -420 235 -420c110 0 202.333 38.333 277 115l63 -59c-89.333 -118.667 -217 -178 -383 -178c-154.667 0 -278.334 45 -371.001 135s-139 215.667 -139 377zM141 1315v8l197 193h8l197 -193v-8c-28 -10 -64.333 -37.167 -109 -81.5s-74 -81.5 -88 -111.5h-8
c-14 30 -43.333 67.167 -88 111.5s-81 71.5 -109 81.5zM383 635.001h266.001c35.333 0 60.666 8.5 75.999 25.5s23 42.5 23 76.5c0 56 -14.667 102.5 -44 139.5s-68 55.5 -116 55.5c-118.667 0 -187 -99 -205 -297zM592.001 1315v8l196 193h9l196 -193v-8
c-28 -10 -64.167 -37.167 -108.5 -81.5s-73.5 -81.5 -87.5 -111.5h-9c-14 30 -43.167 67.167 -87.5 111.5s-80.5 71.5 -108.5 81.5z" />
    <glyph glyph-name="igrave" unicode="&#xec;" horiz-adv-x="604" 
d="M-66 1503l3.00098 5.99902h405c9.33301 -47.333 34.666 -104.666 75.999 -171.999s83 -118.333 125 -153l-6 -6zM41.001 -0.000976562v7.99902l113 70v690c0 89.333 -7 148.833 -21 178.5s-44.667 52.834 -92 69.501v8h410v-782c0 -80.667 7.16699 -136 21.5 -166
s44.5 -52.667 90.5 -68v-8h-522z" />
    <glyph glyph-name="iacute" unicode="&#xed;" horiz-adv-x="604" 
d="M41 0v7.99902l113 70v690c0 89.333 -7 148.833 -21 178.5s-44.667 52.834 -92 69.501v8h410v-782c0 -80.667 7.16699 -136 21.5 -166s44.5 -52.667 90.5 -68v-8h-522zM59 1184c42 34.667 83.668 85.668 125.001 153.001s66.666 124.666 75.999 171.999h406l2 -6
l-602 -325z" />
    <glyph glyph-name="icircumflex" unicode="&#xee;" horiz-adv-x="604" 
d="M-80 1204c40.667 27.333 95 73.001 163 137.001s119 120 153 168h131c34 -47.333 85 -103.333 153 -168s122 -110.334 162 -137.001l-4 -6l-377 119l-377 -119zM41 0.000976562v7.99902l113 70v690c0 89.333 -7 148.833 -21 178.5s-44.667 52.834 -92 69.501v8h410v-782
c0 -80.667 7.16699 -136 21.5 -166s44.5 -52.667 90.5 -68v-8h-522z" />
    <glyph glyph-name="idieresis" unicode="&#xef;" horiz-adv-x="604" 
d="M-125 1315v8l197 193h8l196 -193v-8c-28 -10 -64.167 -37.167 -108.5 -81.5s-73.5 -81.5 -87.5 -111.5h-8c-14 30 -43.333 67.167 -88 111.5s-81 71.5 -109 81.5zM41 0v7.99902l113 70v690c0 89.333 -7 148.833 -21 178.5s-44.667 52.834 -92 69.501v8h410v-782
c0 -80.667 7.16699 -136 21.5 -166s44.5 -52.667 90.5 -68v-8h-522zM326 1315v8l196 193h8l197 -193v-8c-28 -10 -64.333 -37.167 -109 -81.5s-74 -81.5 -88 -111.5h-8c-14 30 -43.167 67.167 -87.5 111.5s-80.5 71.5 -108.5 81.5z" />
    <glyph glyph-name="eth" unicode="&#xf0;" horiz-adv-x="1159" 
d="M61 451c0 72 13.999 138.835 41.999 200.502s65.333 112.667 112 153s99.334 71.666 158.001 93.999s119.334 33.5 182.001 33.5l209 -82c-37.333 156 -94 274 -170 354l-145 -180h-136l-2 6l197 244c-77.333 50 -172.333 82.667 -285 98l13 82
c129.333 -12 245.333 -40 348 -84l135 166h143l-176 -217c128 -75.333 228.667 -176.333 302 -303s110 -274.334 110 -443.001c0 -187.333 -45.167 -333 -135.5 -437s-217.833 -156 -382.5 -156c-99.333 0 -187.833 18.167 -265.5 54.5s-139.334 90.5 -185.001 162.5
s-68.5 156.667 -68.5 254zM378.999 451.002c0 -127.333 17.332 -219 51.999 -275s84.334 -84 149.001 -84s114.167 28 148.5 84s51.5 147.667 51.5 275c0 138 -3.33301 260.667 -10 368h-119c-87.333 0 -154.5 -28.5 -201.5 -85.5s-70.5 -151.167 -70.5 -282.5z" />
    <glyph glyph-name="ntilde" unicode="&#xf1;" horiz-adv-x="1220" 
d="M51 0l0.00195312 8.00098l113 70v690c0 61.333 -3.33301 107.5 -10 138.5s-17.334 54.167 -32.001 69.5s-38.334 28.666 -71.001 39.999v8h410v-147c39.333 50.667 88.333 91.167 147 121.5s121.667 45.5 189 45.5c43.333 0 80.666 -4.33301 111.999 -13
s60.333 -24 87 -46s46.834 -54.167 60.501 -96.5s20.5 -94.833 20.5 -157.5v-653l113 -70v-8h-410v686c0 62 -10.5 106.5 -31.5 133.5s-53.5 40.5 -97.5 40.5c-33.333 0 -67 -9.83301 -101 -29.5s-63.667 -47.167 -89 -82.5v-492c0 -86 6.33301 -144.667 19 -176
s43.667 -55.333 93 -72v-8h-522zM225.002 1276l166.001 225c19.333 2.66699 37.666 4 54.999 4c48.667 0 93.334 -6.83301 134.001 -20.5s79 -27.334 115 -41.001s72 -20.5 108 -20.5c66.667 0 119.334 20 158.001 60l6 -4l-166 -226c-19.333 -2.66699 -38 -4 -56 -4
c-48.667 0 -93.334 6.83301 -134.001 20.5s-78.834 27.334 -114.501 41.001s-71.5 20.5 -107.5 20.5c-67.333 0 -120 -19.667 -158 -59z" />
    <glyph glyph-name="ograve" unicode="&#xf2;" horiz-adv-x="1159" 
d="M61 512c0 164.667 48.5 294.5 145.5 389.5s221.5 142.5 373.5 142.5c151.333 0 275.5 -47.5 372.5 -142.5s145.5 -224.833 145.5 -389.5s-48.5 -294.5 -145.5 -389.5s-221.167 -142.5 -372.5 -142.5c-152 0 -276.5 47.5 -373.5 142.5s-145.5 224.833 -145.5 389.5z
M213 1503l2 5.99902h406c9.33301 -47.333 34.5 -104.666 75.5 -171.999s82.5 -118.333 124.5 -153l-6 -6zM379 511.999c0 -153.333 17 -261.668 51 -325.001s84 -95 150 -95c43.333 0 79.166 12.333 107.499 37s50.833 68.667 67.5 132s25 147 25 251
s-8.33301 187.667 -25 251s-39.167 107.333 -67.5 132s-64.166 37 -107.499 37c-66 0 -116 -31.667 -150 -95s-51 -171.666 -51 -324.999z" />
    <glyph glyph-name="oacute" unicode="&#xf3;" horiz-adv-x="1159" 
d="M61 512c0 164.667 48.5 294.5 145.5 389.5s221.5 142.5 373.5 142.5c151.333 0 275.5 -47.5 372.5 -142.5s145.5 -224.833 145.5 -389.5s-48.5 -294.5 -145.5 -389.5s-221.167 -142.5 -372.5 -142.5c-152 0 -276.5 47.5 -373.5 142.5s-145.5 224.833 -145.5 389.5z
M338 1184c42 34.667 83.668 85.668 125.001 153.001s66.666 124.666 75.999 171.999h405l2 -6l-602 -325zM379.001 512.001c0 -153.333 17 -261.668 51 -325.001s84 -95 150 -95c43.333 0 79.166 12.333 107.499 37s50.833 68.667 67.5 132s25 147 25 251
s-8.33301 187.667 -25 251s-39.167 107.333 -67.5 132s-64.166 37 -107.499 37c-66 0 -116 -31.667 -150 -95s-51 -171.666 -51 -324.999z" />
    <glyph glyph-name="ocircumflex" unicode="&#xf4;" horiz-adv-x="1159" 
d="M61 512c0 164.667 48.5 294.5 145.5 389.5s221.5 142.5 373.5 142.5c151.333 0 275.5 -47.5 372.5 -142.5s145.5 -224.833 145.5 -389.5s-48.5 -294.5 -145.5 -389.5s-221.167 -142.5 -372.5 -142.5c-152 0 -276.5 47.5 -373.5 142.5s-145.5 224.833 -145.5 389.5z
M199 1204c40.667 26.667 94.833 72.168 162.5 136.501s118.5 120.5 152.5 168.5h131c34 -47.333 85.167 -103.333 153.5 -168s122.5 -110.334 162.5 -137.001l-5 -6l-376 119l-377 -119zM378.999 512.001c0 -153.333 17 -261.668 51 -325.001s84 -95 150 -95
c43.333 0 79.166 12.333 107.499 37s50.833 68.667 67.5 132s25 147 25 251s-8.33301 187.667 -25 251s-39.167 107.333 -67.5 132s-64.166 37 -107.499 37c-66 0 -116 -31.667 -150 -95s-51 -171.666 -51 -324.999z" />
    <glyph glyph-name="otilde" unicode="&#xf5;" horiz-adv-x="1159" 
d="M61 512c0 164.667 48.5 294.5 145.5 389.5s221.5 142.5 373.5 142.5c151.333 0 275.5 -47.5 372.5 -142.5s145.5 -224.833 145.5 -389.5s-48.5 -294.5 -145.5 -389.5s-221.167 -142.5 -372.5 -142.5c-152 0 -276.5 47.5 -373.5 142.5s-145.5 224.833 -145.5 389.5z
M209 1276l165.999 225c19.333 2.66699 37.666 4 54.999 4c48.667 0 93.334 -6.83301 134.001 -20.5s78.834 -27.334 114.501 -41.001s71.5 -20.5 107.5 -20.5c66.667 0 119.334 20 158.001 60l6 -4l-166 -226c-19.333 -2.66699 -37.666 -4 -54.999 -4
c-48.667 0 -93.334 6.83301 -134.001 20.5s-78.834 27.334 -114.501 41.001s-71.5 20.5 -107.5 20.5c-67.333 0 -120 -19.667 -158 -59zM378.999 512c0 -153.333 17 -261.668 51 -325.001s84 -95 150 -95c43.333 0 79.166 12.333 107.499 37s50.833 68.667 67.5 132
s25 147 25 251s-8.33301 187.667 -25 251s-39.167 107.333 -67.5 132s-64.166 37 -107.499 37c-66 0 -116 -31.667 -150 -95s-51 -171.666 -51 -324.999z" />
    <glyph glyph-name="odieresis" unicode="&#xf6;" horiz-adv-x="1159" 
d="M61 512c0 164.667 48.5 294.5 145.5 389.5s221.5 142.5 373.5 142.5c151.333 0 275.5 -47.5 372.5 -142.5s145.5 -224.833 145.5 -389.5s-48.5 -294.5 -145.5 -389.5s-221.167 -142.5 -372.5 -142.5c-152 0 -276.5 47.5 -373.5 142.5s-145.5 224.833 -145.5 389.5z
M154 1315v8l196 193h8l197 -193v-8c-28 -10 -64.333 -37.167 -109 -81.5s-74 -81.5 -88 -111.5h-8c-14 30 -43.167 67.167 -87.5 111.5s-80.5 71.5 -108.5 81.5zM379 512c0 -153.333 17 -261.668 51 -325.001s84 -95 150 -95c43.333 0 79.166 12.333 107.499 37
s50.833 68.667 67.5 132s25 147 25 251s-8.33301 187.667 -25 251s-39.167 107.333 -67.5 132s-64.166 37 -107.499 37c-66 0 -116 -31.667 -150 -95s-51 -171.666 -51 -324.999zM604 1315v8l197 193h8l197 -193v-8c-28 -10 -64.333 -37.167 -109 -81.5
s-74 -81.5 -88 -111.5h-8c-14 30 -43.333 67.167 -88 111.5s-81 71.5 -109 81.5z" />
    <glyph glyph-name="divide" unicode="&#xf7;" 
d="M154 600v205h962v-205h-962zM434 354v8c28 10 64.333 37.167 109 81.5s74 81.5 88 111.5h8c14 -30 43.333 -67.167 88 -111.5s81 -71.5 109 -81.5v-8l-197 -192h-8zM434 1042v9l197 192h8l197 -192v-9c-28 -10 -64.333 -37 -109 -81s-74 -81 -88 -111h-8
c-14 30 -43.333 67 -88 111s-81 71 -109 81z" />
    <glyph glyph-name="oslash" unicode="&#xf8;" horiz-adv-x="1159" 
d="M61 -14l129 151c-86 94.667 -129 219.667 -129 375c0 164.667 48.5 294.5 145.5 389.5s221.5 142.5 373.5 142.5c116.667 0 218.334 -29.333 305.001 -88l76 88h133l4 -6l-131 -153c87.333 -96 131 -220.333 131 -373c0 -164.667 -48.5 -294.5 -145.5 -389.5
s-221.167 -142.5 -372.5 -142.5c-116.667 0 -219.334 29.333 -308.001 88l-73 -88h-133zM379 512c0 -54 2 -102.334 6 -145.001l363 426c-32 92.667 -88 139 -168 139c-66 0 -116 -31.667 -150 -95s-51 -171.666 -51 -324.999zM412 228.999
c30 -91.333 86.001 -137.001 168.001 -137.001c43.333 0 79.166 12.333 107.499 37s50.833 68.667 67.5 132s25 147 25 251c0 40.667 -2.66699 88.334 -8 143.001z" />
    <glyph glyph-name="ugrave" unicode="&#xf9;" horiz-adv-x="1208" 
d="M51 1016l-0.000976562 8h410v-686c0 -62 10.167 -106.5 30.5 -133.5s51.833 -40.5 94.5 -40.5c31.333 0 63.333 9.66699 96 29s61.334 47 86.001 83v537c0 64.667 -7.33301 110.5 -22 137.5s-45 48.833 -91 65.5v8h410v-946l113 -70v-8h-410v147
c-39.333 -50.667 -87.833 -91.167 -145.5 -121.5s-119.167 -45.5 -184.5 -45.5c-42 0 -78.5 4.33301 -109.5 13s-59.5 24 -85.5 46s-45.667 54.167 -59 96.5s-20 94.833 -20 157.5v653zM247.999 1503l2.00098 5.99902h405c9.33301 -47.333 34.666 -104.666 75.999 -171.999
s83 -118.333 125 -153l-6 -6z" />
    <glyph glyph-name="uacute" unicode="&#xfa;" horiz-adv-x="1208" 
d="M51 1016l-0.000976562 8h410v-686c0 -62 10.167 -106.5 30.5 -133.5s51.833 -40.5 94.5 -40.5c31.333 0 63.333 9.66699 96 29s61.334 47 86.001 83v537c0 64.667 -7.33301 110.5 -22 137.5s-45 48.833 -91 65.5v8h410v-946l113 -70v-8h-410v147
c-39.333 -50.667 -87.833 -91.167 -145.5 -121.5s-119.167 -45.5 -184.5 -45.5c-42 0 -78.5 4.33301 -109.5 13s-59.5 24 -85.5 46s-45.667 54.167 -59 96.5s-20 94.833 -20 157.5v653zM372.999 1184c42 34.667 83.5 85.668 124.5 153.001s66.167 124.666 75.5 171.999h406
l2 -6l-602 -325z" />
    <glyph glyph-name="ucircumflex" unicode="&#xfb;" horiz-adv-x="1208" 
d="M51 1016l-0.000976562 8h410v-686c0 -62 10.167 -106.5 30.5 -133.5s51.833 -40.5 94.5 -40.5c31.333 0 63.333 9.66699 96 29s61.334 47 86.001 83v537c0 64.667 -7.33301 110.5 -22 137.5s-45 48.833 -91 65.5v8h410v-946l113 -70v-8h-410v147
c-39.333 -50.667 -87.833 -91.167 -145.5 -121.5s-119.167 -45.5 -184.5 -45.5c-42 0 -78.5 4.33301 -109.5 13s-59.5 24 -85.5 46s-45.667 54.167 -59 96.5s-20 94.833 -20 157.5v653zM232.999 1204c40.667 27.333 95 73.001 163 137.001s119 120 153 168h131
c34 -47.333 85 -103.333 153 -168s122 -110.334 162 -137.001l-4 -6l-377 119l-376 -119z" />
    <glyph glyph-name="udieresis" unicode="&#xfc;" horiz-adv-x="1208" 
d="M51 1016l-0.000976562 8h410v-686c0 -62 10.167 -106.5 30.5 -133.5s51.833 -40.5 94.5 -40.5c31.333 0 63.333 9.66699 96 29s61.334 47 86.001 83v537c0 64.667 -7.33301 110.5 -22 137.5s-45 48.833 -91 65.5v8h410v-946l113 -70v-8h-410v147
c-39.333 -50.667 -87.833 -91.167 -145.5 -121.5s-119.167 -45.5 -184.5 -45.5c-42 0 -78.5 4.33301 -109.5 13s-59.5 24 -85.5 46s-45.667 54.167 -59 96.5s-20 94.833 -20 157.5v653zM187.999 1315v8l197 193h8l197 -193v-8c-28 -10 -64.333 -37.167 -109 -81.5
s-74 -81.5 -88 -111.5h-8c-14 30 -43.333 67.167 -88 111.5s-81 71.5 -109 81.5zM638.999 1315v8l197 193h8l196 -193v-8c-28 -10 -64.167 -37.167 -108.5 -81.5s-73.5 -81.5 -87.5 -111.5h-8c-14 30 -43.333 67.167 -88 111.5s-81 71.5 -109 81.5z" />
    <glyph glyph-name="yacute" unicode="&#xfd;" horiz-adv-x="1044" 
d="M-10 1016l-0.00195312 8h385l225 -532h8l150 354c9.33301 23.333 14 44.333 14 63c0 28 -8.16699 51.333 -24.5 70s-34.166 31 -53.499 37v8h361v-8l-92 -70l-566 -1306c-111.333 0 -211.666 -16.667 -300.999 -50l-4 7l357 503l-367 846zM341.998 1184
c42 34.667 83.668 85.668 125.001 153.001s66.666 124.666 75.999 171.999h405l2 -6l-602 -325z" />
    <glyph glyph-name="thorn" unicode="&#xfe;" horiz-adv-x="1218" 
d="M0 1507v9.00195h461v-580c60.667 72 137.667 108 231 108c131.333 0 240 -47.667 326 -143s129 -225 129 -389c0 -168 -42.167 -298.667 -126.5 -392s-200.5 -140 -348.5 -140c-82 0 -152.333 20.333 -211 61v-553h-8c-26.667 39.333 -66.5 77.166 -119.5 113.499
s-109.5 63.5 -169.5 81.5v1577c0 44 -3 80.167 -9 108.5s-16.667 51.5 -32 69.5s-32 31.667 -50 41s-42.333 18.666 -73 27.999zM461 156.002c50.667 -42.667 107.333 -64.001 170 -64.001c43.333 0 79 12.333 107 37s50.167 68.5 66.5 131.5s24.5 146.833 24.5 251.5
c0 146.667 -15.833 253.334 -47.5 320.001s-78.5 100 -140.5 100c-33.333 0 -65.5 -12.5 -96.5 -37.5s-58.833 -56.167 -83.5 -93.5v-645z" />
    <glyph glyph-name="ydieresis" unicode="&#xff;" horiz-adv-x="1044" 
d="M-10 1016l-0.00195312 8h385l225 -532h8l150 354c9.33301 23.333 14 44.333 14 63c0 28 -8.16699 51.333 -24.5 70s-34.166 31 -53.499 37v8h361v-8l-92 -70l-566 -1306c-111.333 0 -211.666 -16.667 -300.999 -50l-4 7l357 503l-367 846zM136.998 1315v8l197 193h8
l197 -193v-8c-28 -10 -64.333 -37.167 -109 -81.5s-74 -81.5 -88 -111.5h-8c-14 30 -43.333 67.167 -88 111.5s-81 71.5 -109 81.5zM587.998 1315v8l196 193h9l196 -193v-8c-28 -10 -64.167 -37.167 -108.5 -81.5s-73.5 -81.5 -87.5 -111.5h-9
c-14 30 -43.167 67.167 -87.5 111.5s-80.5 71.5 -108.5 81.5z" />
    <glyph glyph-name="OE" unicode="&#x152;" horiz-adv-x="1935" 
d="M92 717c0 114.667 16.833 218.835 50.5 312.502s79.667 171.167 138 232.5s126.5 108.666 204.5 141.999s162 50 252 50c38.667 0 73.667 -2.66699 105 -8l-99 -422h-10l-65 289c-158.667 -42.667 -238 -241.334 -238 -596.001c0 -402.667 101.667 -604 305 -604
s305 201.333 305 604c0 244.667 -37.333 415.334 -112 512.001l63 205h821v-420h-8c-8.66699 36 -20.667 69.333 -36 100s-35.166 59.667 -59.499 87s-55.5 49 -93.5 65s-80.667 24 -128 24h-150v-477h414v-8l-166 -146h-248v-516h191c46.667 0 89.167 9 127.5 27
s69.666 42.167 93.999 72.5s44.166 61.666 59.499 93.999s27.333 66.833 36 103.5h8v-440h-966c-50 -13.333 -100.667 -20 -152 -20c-90 0 -173.833 16.667 -251.5 50s-145.667 80.666 -204 141.999s-104.166 138.833 -137.499 232.5s-50 197.834 -50 312.501z" />
    <glyph glyph-name="oe" unicode="&#x153;" horiz-adv-x="1763" 
d="M61 512c0 164.667 48.5029 294.5 145.503 389.5s221.5 142.5 373.5 142.5c70.667 0 138.667 -12.667 204 -38s120 -61 164 -107c92.667 96.667 206.667 145 342 145c127.333 0 229.5 -38.833 306.5 -116.5s115.5 -179.834 115.5 -306.501v-99h-487l-125 86
c-1.33301 -15.333 -2 -44 -2 -86c0 -280 78.333 -420 235 -420c110 0 202.333 38.333 277 115l63 -59c-88.667 -118.667 -216.334 -178 -383.001 -178c-146.667 0 -264 45 -352 135c-44.667 -43.333 -98.334 -76.666 -161.001 -99.999s-128.334 -35 -197.001 -35
c-152 0 -276.5 47.5 -373.5 142.5s-145.5 224.833 -145.5 389.5zM379.003 512c0 -153.333 17.0029 -261.668 51.0029 -325.001s84 -95 150 -95c31.333 0 58.666 6.66699 81.999 20s44.166 35.666 62.499 66.999s32.166 75.166 41.499 131.499s14 124.833 14 205.5
c0 102.667 -8.5 185.334 -25.5 248.001s-39.667 106.334 -68 131.001s-63.833 37 -106.5 37c-66 0 -116 -31.667 -150 -95s-51 -171.666 -51 -324.999zM1102.01 634.998h266c34.667 0 59.667 8.5 75 25.5s23 42.5 23 76.5c0 56 -14.5 102.5 -43.5 139.5
s-67.5 55.5 -115.5 55.5c-118.667 0 -187 -99 -205 -297z" />
    <glyph glyph-name="Ydieresis" unicode="&#x178;" horiz-adv-x="1228" 
d="M-20 1425l0.00390625 9h419l287 -598h8l172 340c28.667 58 43 105.667 43 143c0 64 -38.667 99.333 -116 106v9h456v-9l-125 -59l-352 -707v-415c0 -32 3.66699 -61 11 -87s16.666 -47 27.999 -63s25.166 -30.167 41.499 -42.5s31.666 -21.5 45.999 -27.5
s30.166 -11.333 47.499 -16v-8h-655v8l174 70v553l-361 735zM229.004 1704v8l197 193h8l197 -193v-8c-28 -10 -64.333 -37.167 -109 -81.5s-74 -81.5 -88 -111.5h-8c-14 30 -43.333 67.167 -88 111.5s-81 71.5 -109 81.5zM680.004 1704v8l197 193h8l196 -193v-8
c-28 -10 -64.167 -37.167 -108.5 -81.5s-73.5 -81.5 -87.5 -111.5h-8c-14 30 -43.333 67.167 -88 111.5s-81 71.5 -109 81.5z" />
    <glyph glyph-name="circumflex" unicode="&#x2c6;" horiz-adv-x="819" 
d="M29 1169c40.667 26.667 94.833 72.333 162.5 137s118.5 121 152.5 169h131c34 -47.333 85.167 -103.5 153.5 -168.5s122.5 -110.833 162.5 -137.5l-5 -6l-376 119l-377 -119z" />
    <glyph glyph-name="tilde" unicode="&#x2dc;" horiz-adv-x="819" 
d="M39 1241l166.004 224.997c19.333 2.66699 37.666 4 54.999 4c38.667 0 75.167 -4.16699 109.5 -12.5s62.166 -17.666 83.499 -27.999s46.5 -19.666 75.5 -27.999s58.167 -12.5 87.5 -12.5c67.333 0 120 19.667 158 59l6 -4l-166 -225c-24 -3.33301 -42.333 -5 -55 -5
c-48.667 0 -93.334 6.83301 -134.001 20.5s-78.834 27.334 -114.501 41.001s-71.5 20.5 -107.5 20.5c-67.333 0 -120 -19.667 -158 -59z" />
    <glyph glyph-name="uni2000" unicode="&#x2000;" horiz-adv-x="958" 
 />
    <glyph glyph-name="uni2001" unicode="&#x2001;" horiz-adv-x="1917" 
 />
    <glyph glyph-name="uni2002" unicode="&#x2002;" horiz-adv-x="958" 
 />
    <glyph glyph-name="uni2003" unicode="&#x2003;" horiz-adv-x="1917" 
 />
    <glyph glyph-name="uni2004" unicode="&#x2004;" horiz-adv-x="639" 
 />
    <glyph glyph-name="uni2005" unicode="&#x2005;" horiz-adv-x="479" 
 />
    <glyph glyph-name="uni2006" unicode="&#x2006;" horiz-adv-x="319" 
 />
    <glyph glyph-name="uni2007" unicode="&#x2007;" horiz-adv-x="319" 
 />
    <glyph glyph-name="uni2008" unicode="&#x2008;" horiz-adv-x="239" 
 />
    <glyph glyph-name="uni2009" unicode="&#x2009;" horiz-adv-x="383" 
 />
    <glyph glyph-name="uni200A" unicode="&#x200a;" horiz-adv-x="106" 
 />
    <glyph glyph-name="uni2010" unicode="&#x2010;" horiz-adv-x="1071" 
d="M72 512v8l135 217h792v-8l-135 -217h-792z" />
    <glyph glyph-name="uni2011" unicode="&#x2011;" horiz-adv-x="1071" 
d="M72 512v8l135 217h792v-8l-135 -217h-792z" />
    <glyph glyph-name="figuredash" unicode="&#x2012;" horiz-adv-x="1071" 
d="M72 512v8l135 217h792v-8l-135 -217h-792z" />
    <glyph glyph-name="endash" unicode="&#x2013;" horiz-adv-x="1374" 
d="M72 512v8l135 217h1096v-8l-136 -217h-1095z" />
    <glyph glyph-name="emdash" unicode="&#x2014;" horiz-adv-x="1701" 
d="M72 537v8l106 168h1452v-8l-106 -168h-1452z" />
    <glyph glyph-name="quoteleft" unicode="&#x2018;" horiz-adv-x="565" 
d="M82 1108l-0.000976562 8l278 510l9 -4c-14 -50.667 -21 -106.667 -21 -168c0 -64.667 11.333 -126.5 34 -185.5s56.334 -109.833 101.001 -152.5v-8l-196 -193h-8z" />
    <glyph glyph-name="quoteright" unicode="&#x2019;" horiz-adv-x="565" 
d="M82 1425l0.000976562 8.99902l197 192h8l196 -192v-9l-278 -510l-8 5c13.333 48.667 20 104.334 20 167.001c0 64.667 -11.333 126.5 -34 185.5s-56.334 109.833 -101.001 152.5z" />
    <glyph glyph-name="quotesinglbase" unicode="&#x201a;" horiz-adv-x="565" 
d="M82 172l0.000976562 8l197 193h8l196 -193v-8l-278 -510l-8 4c13.333 48.667 20 104.667 20 168c0 64.667 -11.333 126.5 -34 185.5s-56.334 109.833 -101.001 152.5z" />
    <glyph glyph-name="quotedblleft" unicode="&#x201c;" horiz-adv-x="1028" 
d="M82 1108l-0.000976562 8l278 510l9 -4c-14 -50.667 -21 -106.667 -21 -168c0 -64.667 11.333 -126.5 34 -185.5s56.334 -109.833 101.001 -152.5v-8l-196 -193h-8zM544.999 1108l-0.000976562 8l278 510l8 -4c-13.333 -48.667 -20 -104.667 -20 -168
c0 -64.667 11.333 -126.5 34 -185.5s56.334 -109.833 101.001 -152.5v-8l-196 -193h-9z" />
    <glyph glyph-name="quotedblright" unicode="&#x201d;" horiz-adv-x="1028" 
d="M82 1425l0.000976562 8.99902l197 192h8l196 -192v-9l-278 -510l-8 5c13.333 48.667 20 104.334 20 167.001c0 64.667 -11.333 126.5 -34 185.5s-56.334 109.833 -101.001 152.5zM545.001 1425l0.000976562 8.99902l196 192h9l196 -192v-9l-278 -510l-9 5
c14 50.667 21 106.334 21 167.001c0 64.667 -11.333 126.5 -34 185.5s-56.334 109.833 -101.001 152.5z" />
    <glyph glyph-name="quotedblbase" unicode="&#x201e;" horiz-adv-x="1028" 
d="M82 172l0.000976562 8l197 193h8l196 -193v-8l-278 -510l-8 4c13.333 48.667 20 104.667 20 168c0 64.667 -11.333 126.5 -34 185.5s-56.334 109.833 -101.001 152.5zM545.001 172l0.000976562 8l196 193h9l196 -193v-8l-278 -510l-9 4c14 50.667 21 106.667 21 168
c0 64.667 -11.333 126.5 -34 185.5s-56.334 109.833 -101.001 152.5z" />
    <glyph glyph-name="bullet" unicode="&#x2022;" horiz-adv-x="749" 
d="M102 629l0.00195312 8l269 342h8l268 -342v-8c-70.667 -20.667 -125.834 -54 -165.501 -100s-73.834 -106.333 -102.501 -181h-8c-28.667 74.667 -63 135 -103 181s-95.333 79.333 -166 100z" />
    <glyph glyph-name="ellipsis" unicode="&#x2026;" horiz-adv-x="1781" 
d="M96 172v8c28 10 64.333 37.167 109 81.5s74 81.5 88 111.5h8c14 -30 43.333 -67.167 88 -111.5s81 -71.5 109 -81.5v-8l-197 -192h-8zM690 172v8c28 10 64.333 37.167 109 81.5s74 81.5 88 111.5h8c14 -30 43.333 -67.167 88 -111.5s81 -71.5 109 -81.5v-8l-197 -192h-8z
M1284 172v8c28 10 64.333 37.167 109 81.5s74 81.5 88 111.5h8c14 -30 43.333 -67.167 88 -111.5s81 -71.5 109 -81.5v-8l-197 -192h-8z" />
    <glyph glyph-name="uni202F" unicode="&#x202f;" horiz-adv-x="383" 
 />
    <glyph glyph-name="guilsinglleft" unicode="&#x2039;" horiz-adv-x="585" 
d="M72 508v8c124 94.667 249.667 230 377 406h40l5 -9l-150 -401l150 -401l-5 -9h-40c-127.333 176 -253 311.333 -377 406z" />
    <glyph glyph-name="guilsinglright" unicode="&#x203a;" horiz-adv-x="585" 
d="M92 111l150 401l-150 401l4 9h41c127.333 -176 253 -311.333 377 -406v-8c-124 -94.667 -249.667 -230 -377 -406h-41z" />
    <glyph glyph-name="uni205F" unicode="&#x205f;" horiz-adv-x="479" 
 />
    <glyph glyph-name="Euro" unicode="&#x20ac;" horiz-adv-x="1177" 
d="M20 518l-0.000976562 8.00098l181 115h14c-1.33301 16.667 -2 42 -2 76c0 39.333 0.666992 68.666 2 87.999h-195v8l181 115h28c28 167.333 89.5 296.833 184.5 388.5s211.167 137.5 348.5 137.5c64 0 127.167 -10.333 189.5 -31s117.166 -50 164.499 -88l-41 -321h-8
c-31.333 110 -72.166 193.833 -122.499 251.5s-107.833 86.5 -172.5 86.5c-77.333 0 -133.833 -32.667 -169.5 -98s-58.167 -174 -67.5 -326h415v-8l-180 -115h-240v-164h420v-8l-180 -115h-235c7.33301 -156.667 26.833 -268.5 58.5 -335.5s87.834 -100.5 168.501 -100.5
c76 0 138.667 31.667 188 95s91 154 125 272h8l43 -351c-51.333 -38 -110.5 -67.167 -177.5 -87.5s-131.833 -30.5 -194.5 -30.5c-138 0 -253.833 47 -347.5 141s-153.5 226.333 -179.5 397h-207z" />
    <glyph glyph-name="trademark" unicode="&#x2122;" horiz-adv-x="1417" 
d="M31 1208l-0.00195312 226h538v-226h-8c-7.33301 43.333 -21.666 79.833 -42.999 109.5s-51.333 44.5 -90 44.5h-53v-504l84 -35v-8h-318v8l80 35v504h-49c-38.667 0 -68.667 -14.833 -90 -44.5s-35.666 -66.167 -42.999 -109.5h-8zM593.998 815v8l70 35v535l-70 32v9h199
l170 -375h8l172 375h213v-9l-68 -32v-535l68 -35v-8h-221v369h-9l-176 -406h-8l-180 396h-8v-359h-160z" />
    <glyph glyph-name="uni25FC" unicode="&#x25fc;" horiz-adv-x="1024" 
d="M0 0v1024h1024v-1024h-1024z" />
    <glyph glyph-name="uniFB01" unicode="&#xfb01;" horiz-adv-x="1345" 
d="M31 901l-0.000976562 8.00195c35.333 20.667 60.833 36 76.5 46s32.834 23.5 51.501 40.5s32.667 35.167 42 54.5s17.333 43.333 24 72c8.66699 37.333 20.167 72 34.5 104s29.5 59.833 45.5 83.5s35.333 45.167 58 64.5s44.167 35.5 64.5 48.5s44.833 24.833 73.5 35.5
s53.834 19 75.501 25s48.167 11.333 79.5 16s57.166 8 77.499 10s46.166 4.33301 77.499 7l-23 -320h-8c-23.333 51.333 -50.833 90.166 -82.5 116.499s-63.5 39.5 -95.5 39.5c-34 0 -59.167 -13.5 -75.5 -40.5s-24.5 -72.833 -24.5 -137.5v-150h690v-768
c0 -86 6.5 -144.667 19.5 -176s44.167 -55.333 93.5 -72v-8h-410v901h-393v-625c0 -39.333 2.83301 -73.333 8.5 -102s12.834 -51.834 21.501 -69.501s21.167 -33 37.5 -46s32 -22.667 47 -29s34.833 -13.5 59.5 -21.5v-8h-584v8l113 70v823h-174zM843.999 1315v8l196 193h9
l196 -193v-8c-28 -10 -64.167 -37.167 -108.5 -81.5s-73.5 -81.5 -87.5 -111.5h-9c-14 30 -43.167 67.167 -87.5 111.5s-80.5 71.5 -108.5 81.5z" />
    <glyph glyph-name="uniFB02" unicode="&#xfb02;" horiz-adv-x="1345" 
d="M31 901v7.99707c35.333 20.667 60.833 36 76.5 46s32.834 23.5 51.501 40.5s32.667 35.167 42 54.5s17.333 43.333 24 72c13.333 56.667 32.333 106.5 57 149.5s55.167 78.667 91.5 107s75 51.833 116 70.5s88.667 32.667 143 42s107.166 15.833 158.499 19.5
s110 5.5 176 5.5h235v-1260c0 -87.333 7.16699 -146.666 21.5 -177.999s44.833 -54.666 91.5 -69.999v-8h-410v1167c0 74 -14.833 123.333 -44.5 148s-74.167 37 -133.5 37c-36.667 0 -67.667 -3 -93 -9s-48.5 -17 -69.5 -33s-36.667 -39 -47 -69s-15.5 -67.667 -15.5 -113
v-104h299v-8l-162 -115h-137v-645c0 -55.333 6.83301 -99.666 20.5 -132.999s32 -57.833 55 -73.5s55.833 -29.5 98.5 -41.5v-8h-584v8l113 70v823h-174z" />
    </font>
</defs>
</svg>
