<?xml version="1.0" standalone="no"?>
<!DOCTYPE svg PUBLIC "-//W3C//DTD SVG 1.1//EN" "http://www.w3.org/Graphics/SVG/1.1/DTD/svg11.dtd" >
<svg xmlns="http://www.w3.org/2000/svg">
<metadata>Generated by IcoMoon</metadata>
<defs>
<font id="keyrune" horiz-adv-x="1024">
<font-face units-per-em="1024" ascent="960" descent="-64" />
<missing-glyph horiz-adv-x="1024" />
<glyph unicode="&#x20;" d="" horiz-adv-x="512" />
<glyph unicode="&#xe600;" d="M730.44 875.402c0 0 53.845-5.84 53.845-61.508l199.825-55.668c0 0 49.922-19.249 34.504-84.588l-165.158-616.602c0 0-34.598-46.16-74.918-34.574l-266.474 73.283-266.542-73.283c-40.322-11.587-74.918 34.574-74.918 34.574l-165.253 616.602c-15.324 65.338 34.598 84.588 34.598 84.588l199.825 55.668c0 55.668 53.753 61.508 53.753 61.508h436.912zM728.711 852.299h-433.454c-2.452-0.445-10.209-2.173-17.427-7.031-10.303-6.822-15.044-16.773-15.044-31.374v-17.521c0 0-211.997-59.148-215.081-59.965-5.583-2.546-22.192-12.592-22.192-39.129 0-5.396 0.748-11.424 2.289-18.268 0.282-1.005 161.142-601.44 163.804-611.111 7.008-8.035 27.916-28.919 47.633-23.361l272.826 75.105 272.758-75.105c19.715-5.559 40.53 15.326 47.631 23.361 2.664 9.672 163.524 610.106 163.804 611.111 1.541 6.844 2.289 12.872 2.289 18.268 0 26.537-16.701 36.582-22.192 39.129-3.084 0.817-215.173 59.965-215.173 59.965v17.521c0 14.601-4.743 24.552-14.95 31.374-7.219 4.859-14.974 6.588-17.521 7.031zM258.207 764.604v-592.937c0 0 5.023-38.521 35.859-38.521h166.443l-222.836-61.414c0 0-12.778-6.378-19.248 7.663l-163.898 608.377c0 0-6.47 19.178 8.948 24.271l194.732 52.562zM765.947 765.889l194.546-52.562c15.418-5.117 9.018-24.272 9.016-24.272l-163.966-608.377c-6.308-14.063-19.156-7.661-19.156-7.661l-222.836 61.508h166.514c30.672 0 35.881 38.403 35.881 38.403v592.961zM726.888 823.472c8.948 0 10.209-11.493 10.209-11.493v-637.766c0-10.231-10.209-12.778-10.209-12.778h-428.991c-9.018 0-9.018 12.778-9.018 12.778v637.766c0 7.661 9.018 11.493 9.018 11.493h428.991zM619.179 689.497c-5.755 0-23.421-1.729-52.997-5.187-29.578-3.458-55.695-5.187-78.351-5.187-14.979 0-39.177 0.864-72.591 2.594-33.417 1.727-65.485 3.546-96.205 5.458 0-13.058 27.269-20.927 81.806-23.612 11.134-4.219 22.275-8.252 33.422-12.095l-56.47-210.27c0 0.374 0.29 2.101 0.87 5.176l0.179 0.935 0.689 2.521c-0.003 0.067 0.048 0.171-0.014 0.2-0.092 0.043-0.193-0.411-0.326-1.005-0.167-0.754-0.237-1.126-0.35-1.715-7.666-28.029-15.165-56.103-22.649-84.181-10.179-38.216-17.091-58.668-20.736-61.358s-7.39-4.035-11.235-4.035c-3.458 0.773-6.241 1.35-8.351 1.732-2.109 0.381-3.164-0.384-3.164-2.295 0-2.309 0.573-7.881 1.722-16.719l110.041 7.489c0 2.309 0 5.383 0 9.221s-1.922 6.339-5.767 7.499c-8.837-0.775-17.669-1.548-26.494-2.321-7.689 0-11.918 2.976-12.686 8.931s-1.15 11.621-1.15 17.002c0 18.435 2.69 38.793 8.069 61.068s10.754 42.824 16.121 61.648c4.233 5.367 32.655 11.796 85.268 19.285 52.615 7.491 80.65 10.467 84.108 8.931 3.458-1.534 7.781-19.681 12.967-54.439s10.276-69.226 15.27-103.404c-3.072-5.379-12-9.702-26.786-12.966s-22.178-6.82-22.178-10.663c0-2.685 1.917-5.948 5.75-9.793 0.773-0.761 4.71-0.184 11.814 1.732s22.176 2.874 45.218 2.874c24.965 0 43.209-0.865 54.731-2.592 11.522-1.731 19.203-2.594 23.049-2.594 4.219 0 10.173 0.773 17.862 2.321 1.536 13.431-4.035 20.147-16.71 20.147-12.677 0-21.992 2.019-27.945 6.057-5.955 4.038-12.771 25.643-20.448 64.812-7.677 39.171-13.244 71.433-16.701 96.785-2.697 6.141-8.46 32.544-17.292 79.212-8.832 46.665-13.247 78.636-13.247 95.915 0 5.378 0.287 9.317 0.862 11.814 0.573 2.497 7.006 4.61 19.296 6.339 12.288 1.727 21.123 4.514 26.503 8.359-2.297 6.915-10.554 10.373-24.772 10.373zM525.85 660.681c3.838 0 6.719-0.865 8.641-2.594 1.923-1.729 8.071-21.7 18.444-59.916 10.371-38.216 15.558-66.924 15.558-86.122-20.359-2.309-42.924-4.328-67.695-6.055-24.772-1.731-46.57-2.594-65.394-2.594-11.134 0-17.275 0.58-18.423 1.741-0.387 0.386 3.932 17.669 12.957 51.847s18.144 68.361 27.356 102.55c9.225 0.375 19.019 0.659 29.387 0.853 10.366 0.193 19.968 0.29 28.807 0.29 3.070 0 6.525 0 10.363 0z" />
<glyph unicode="&#xe601;" d="M730.44 875.315c0 0 53.842-5.746 53.842-61.411l199.741-55.757c0 0 49.896-19.156 34.572-84.489l-165.147-616.651c0 0-34.594-45.971-74.912-34.478l-266.431 73.277-266.547-73.277c-40.318-11.493-74.912 34.478-74.912 34.478l-165.241 616.651c-15.322 65.333 34.596 84.489 34.596 84.489l199.811 55.757c0 55.665 53.748 61.411 53.748 61.411h436.881zM728.711 852.306h-433.423c-2.452-0.442-10.208-2.173-17.425-7.030-10.301-6.822-15.044-16.773-15.044-31.372v-17.519c0 0-211.982-59.145-215.064-59.962-5.584-2.64-22.192-12.59-22.192-39.127 0-5.395 0.748-11.421 2.289-18.266 0.282-1.097 161.154-601.397 163.7-611.067 7.124-8.035 28.006-28.919 47.722-23.359l272.739 75.098 272.901-75.098c19.622-5.56 40.434 15.324 47.536 23.359 2.662 9.67 163.441 609.969 163.792 611.067 1.565 6.845 2.289 12.872 2.289 18.266 0 26.537-16.701 36.487-22.168 39.127-3.106 0.819-215.158 59.962-215.158 59.962v17.519c0 14.599-4.743 24.55-14.974 31.372-7.287 4.857-14.973 6.586-17.519 7.030zM258.241 764.524v-592.8c0 0 5.021-38.519 35.785-38.519h166.525l-222.843-61.411c0 0-12.848-6.376-19.248 7.755l-163.862 608.148c0 0-6.4 19.272 8.922 24.364l194.72 52.463zM765.851 765.903l194.627-52.559c15.416-5.115 9.040-24.269 9.040-24.269l-163.98-608.336c-6.376-14.061-19.154-7.661-19.154-7.661l-222.821 61.411h166.432c30.74 0 35.855 38.496 35.855 38.496v592.918zM726.89 823.482c8.946 0 10.208-11.493 10.208-11.493v-637.814c0-10.138-10.208-12.684-10.208-12.684h-428.94c-9.039 0-9.039 12.684-9.039 12.684v637.814c0 7.661 9.039 11.493 9.039 11.493h428.94zM567.165 690.574c-8.938-0.002-16.57-0.746-22.895-2.232v0c-30.879-7.076-55.53-15.916-73.957-26.523-18.425-10.607-39.728-15.911-63.906-15.91-10.424-0.002-21.591 1.302-33.498 3.908s-23.631 5.21-35.168 7.811c-3.726-0.002-6.798-1.582-9.216-4.745-2.42-3.164-3.628-6.045-3.628-8.646 0-4.099 12.187-7.822 36.565-11.165 24.376-3.345 38.146-12.928 41.308-28.747s6.048-46.056 8.655-90.709c2.606-44.655 3.908-84.47 3.908-119.448 0-16.377-0.372-29.496-1.114-39.359-0.744-9.863-1.86-15.351-3.348-16.464l-65.311-18.415c-2.237-1.862-3.355-3.536-3.355-5.024 0-2.237 0.558-4.193 1.678-5.869 1.118-1.674 2.422-3.069 3.91-4.181l50.797 8.926 19.538 1.125c16.002 0 33.584-2.512 52.748-7.538 19.164-5.024 35.26-8.747 48.285-11.167 13.027-2.418 27.54-3.628 43.542-3.628 12.65 0 25.301 1.116 37.953 3.348s27.537 6.697 44.657 13.397 29.309 18.517 36.565 35.449c7.257 16.932 10.885 35.632 10.885 56.096 0 21.951-8.839 43.906-26.515 65.864s-40.284 35.543-67.825 40.757c5.202 3.712 18.598 13.013 40.185 27.902 18.239 16.751 27.358 37.033 27.358 60.848 0 5.212-1.302 15.91-3.908 32.094-2.608 16.183-13.309 30.602-32.102 43.259-18.796 12.657-39.726 18.985-62.79 18.987zM527.524 657.628c20.84-0.002 37.866-6.605 51.079-19.813s19.82-29.486 19.82-48.838v-9.489c0-21.588-8.187-37.871-24.564-48.847-16.375-10.976-34.051-18.14-53.028-21.489 27.163-11.914 54.516-23.822 82.057-35.722 22.327-13.764 33.49-32.372 33.49-55.823 0-26.052-3.070-46.797-9.207-62.235-6.139-15.44-15.998-26.51-29.582-33.21-13.582-6.7-32.468-10.051-56.656-10.051-13.776 0-26.245 1.488-37.408 4.463s-19.348 7.719-24.556 14.232c-5.207 6.514-8.557 13.865-10.051 22.052-1.493 8.189-2.241 20.47-2.241 36.847 0.375 16 0.749 32.84 1.125 50.516 0.374 17.676 0.561 40.098 0.561 67.263 0 6.325-0.188 16.184-0.561 29.58-0.375 13.396-0.563 23.443-0.561 30.143-0.002 26.79 3.070 47.72 9.214 62.79s18.893 23.91 38.243 26.523l12.827 1.108z" />
<glyph unicode="&#xe602;" d="M730.844 876.213c0-0.002 53.955-5.758 53.955-61.539l200.25-55.873c0 0 49.997-19.195 34.548-84.664l-165.489-617.837c0 0-34.668-46.252-75.068-34.642l-266.984 73.429-267.102-73.429c-40.4-11.61-75.066 34.642-75.066 34.642l-165.49 617.837c-15.449 65.469 34.644 84.664 34.644 84.664l200.156 55.873c0 55.781 53.859 61.537 53.859 61.539h437.787zM729.112 853.156h-434.229c-2.551-0.444-10.228-2.178-17.555-7.045-10.23-6.835-15.075-16.807-15.075-31.437v-17.555c0 0-212.422-59.267-215.511-60.087-5.501-2.645-22.238-12.617-22.238-39.207 0-5.407 0.749-11.447 2.295-18.306 0.374-1.101 161.487-602.644 164.132-612.335 7.045-8.052 27.971-28.977 47.727-23.313l273.398 75.16 273.28-75.16c19.756-5.664 40.612 15.261 47.729 23.313 2.668 9.69 163.85 611.236 164.132 612.335 1.545 6.859 2.294 12.899 2.294 18.306 0 26.59-16.736 36.562-22.214 39.207-3.113 0.817-215.605 60.087-215.605 60.087v17.555c0 14.63-4.775 24.602-15.003 31.437-7.233 4.867-15.005 6.6-17.556 7.045zM257.666 765.285v-594.125c0 0 5.033-38.598 35.953-38.598h166.755l-223.283-61.539c0 0-12.78-6.39-19.287 7.678l-164.204 609.504c0 0-6.412 19.311 8.943 24.414l195.123 52.666zM766.423 766.573l195.031-52.668c15.355-5.125 8.965-24.32 8.965-24.32l-164.32-609.597c-6.391-14.090-19.195-7.677-19.195-7.677l-223.281 61.631h166.869c30.711 0 35.93 38.482 35.93 38.482v594.149zM727.286 824.271c9.059 0 10.23-11.515 10.23-11.515v-639.044c0-10.346-10.228-12.897-10.228-12.897h-429.829c-9.059 0-9.059 12.897-9.059 12.897v639.044c0 7.677 9.059 11.515 9.059 11.515h429.827zM644.234 676.285c-8.417 0-20.763-1.19-37.038-3.567s-25.603-4.113-27.981-5.207-3.567-2.557-3.565-4.388c-0.002-2.198 3.93-7.047 11.796-14.543 7.863-7.496 12.619-14.261 14.266-20.294 1.645-6.033 2.654-10.882 3.021-14.543 0.37-3.661 0.553-8.784 0.553-15.37v-11.52c0-8.407 0.273-18.372 0.821-29.897 0.546-11.527 1.644-25.885 3.29-43.075 1.647-17.191 2.47-34.198 2.47-51.021 0-20.127-1.097-36.774-3.29-49.939-2.193-13.167-5.489-25.052-9.887-35.657-8.774-15.729-21.576-26.977-38.403-33.748s-34.2-10.156-52.116-10.156c-5.123 0-17.836 1.19-38.135 3.567s-35.847 18.383-46.641 48.014c-10.795 29.633-16.191 74.627-16.191 134.985 0 10.972 0.092 21.946 0.276 32.918 0.184 10.974 0.276 22.13 0.275 33.473 0.369 10.235 0.736 21.024 1.097 32.367 0.364 11.341 0.544 22.497 0.544 33.471 0 10.972-1.555 17.191-4.663 18.654-3.11 1.461-6.127 2.193-9.050 2.193-11.699-2.569-23.769-4.949-36.21-7.142s-27.619-3.29-45.536-3.29c0-7.68 5.76-14.628 17.28-20.845 11.52-6.219 18.377-14.176 20.57-23.869 2.193-9.696 3.475-17.195 3.843-22.496 0.369-5.303 0.551-20.758 0.551-46.365v-60.899c0-51.205 2.744-88.515 8.23-111.928 5.487-23.414 14.268-40.974 26.339-52.676 12.073-11.704 23.869-20.028 35.389-24.967s23.866-7.409 37.038-7.409c20.485 2.924 39.322 5.485 56.513 7.685s33.193 8.967 48.005 20.303c14.814 11.336 28.438 22.675 40.873 34.016 5.492 1.094 10.706-3.934 15.64-15.085 4.934-11.153 11.424-19.471 19.473-24.958s14.177-8.871 18.386-10.155c4.207-1.285 8.875-1.927 13.998-1.927 8.774 0 16.362 2.196 22.764 6.589s10.15 8.967 11.244 13.722c-23.040 7.311-37.67 19.656-43.887 37.030-6.217 17.376-9.327 44.716-9.327 82.022v195.34c0 23.776-1.188 36.485-3.565 38.127-2.379 1.64-5.398 2.461-9.059 2.461z" />
<glyph unicode="&#xe603;" d="M730.875 876.256c0 0 53.955-5.852 53.955-61.631l200.224-55.779c0 0 50.021-19.287 34.572-84.756l-165.489-617.832c0 0-34.666-46.252-75.066-34.644l-267.006 73.429-267.075-73.429c-40.4-11.609-75.066 34.644-75.066 34.644l-165.583 617.832c-15.357 65.469 34.666 84.756 34.666 84.756l200.224 55.779c0 55.779 53.861 61.631 53.861 61.631h437.782zM729.143 853.106h-434.225c-2.551-0.445-10.228-2.178-17.555-7.023-10.23-6.857-15.075-16.829-15.075-31.459v-17.555c0 0-212.419-59.244-215.509-60.087-5.501-2.551-22.236-12.616-22.236-39.207 0-5.407 0.749-11.445 2.294-18.21 0.374-1.099 161.463-602.735 164.13-612.425 7.023-7.958 27.972-28.977 47.635-23.313l273.464 75.254 273.302-75.254c19.756-5.664 40.612 15.355 47.727 23.313 2.669 9.69 163.85 611.325 164.132 612.425 1.545 6.765 2.294 12.803 2.294 18.21 0 26.592-16.736 36.656-22.236 39.207-3.091 0.843-215.511 60.087-215.511 60.087v17.555c0 14.63-4.845 24.602-15.073 31.459-7.233 4.845-15.003 6.577-17.556 7.023zM257.681 766.321v-594.121c0 0 5.033-38.504 35.929-38.504h166.777l-223.281-61.631c0 0-12.803-6.39-19.287 7.678l-164.224 609.592c0 0-6.391 19.217 8.963 24.32l195.123 52.666zM766.341 767.607l195.028-52.666c15.449-5.127 9.035-24.32 9.035-24.32l-164.294-609.498c-6.39-14.162-19.193-7.772-19.193-7.772l-223.281 61.631h166.775c30.805 0 35.93 38.482 35.93 38.482v594.144zM727.298 825.306c8.965 0 10.23-11.517 10.23-11.517v-639.039c0-10.228-10.23-12.803-10.23-12.803h-429.848c-9.035 0-9.035 12.803-9.035 12.803v639.039c0 7.678 9.035 11.517 9.035 11.517h429.848zM538.208 664.916v0c-20.47 0-37.883-3.55-52.238-10.646s-26.982-15.27-37.883-24.516h-28.711c-12.541-0.002-27.725 1.485-45.551 4.456-17.826 2.973-31.857 5.446-42.092 7.421-4.956 0-7.434-2.968-7.434-8.9 0-4.958 10.895-8.426 32.684-10.404 21.791-1.98 34.335-4.702 37.634-8.168s6.352-14.771 9.158-33.917 4.209-36.64 4.207-52.487v-130.224c0.002-40.276-2.145-61.24-6.436-62.892s-15.101-2.888-32.428-3.709c-17.326-0.823-25.991-3.71-25.991-8.666 0-6.277 2.968-9.414 8.9-9.414l58.435 5.455h74.269l43.081-3.959h4.956c5.932 0 8.9 3.466 8.9 10.397 0 4.291-2.473 6.438-7.421 6.438h-38.124c-13.862 0-23.434 1.732-28.718 5.197s-7.926 11.303-7.926 23.513v17.831c0 7.927 0.166 26.003 0.498 54.224 0.333 28.223 1.487 42.334 3.461 42.334 27.401 0 49.024-9.904 64.87-29.708 15.846-19.806 32.763-43.738 50.749-71.799s29.786-43.824 35.396-47.288c5.612-3.466 9.409-5.366 11.394-5.697h73.771c0.333 0.664 0.995 1.739 1.988 3.226 0.992 1.487 1.488 2.889 1.488 4.209 0 4.623-5.861 7.345-17.582 8.166s-21.212 6.844-28.476 18.065c-15.836 21.458-31.101 42.503-45.793 63.133-14.693 20.632-26.991 39.863-36.893 57.694 29.708 20.137 48.689 34.497 56.945 43.081 8.255 8.583 12.384 25.748 12.384 51.497 0 28.387-10.069 51.495-30.206 69.321-20.139 17.824-45.227 26.738-75.267 26.738zM509.498 634.209c25.083 0 44.063-7.677 56.936-23.028 12.875-15.353 19.313-34.744 19.313-58.177 0-19.806-6.274-35.485-18.821-47.039-12.547-11.556-28.063-17.333-46.548-17.333-22.446 0-38.453 5.035-48.022 15.104-9.571 10.068-14.356 23.685-14.356 40.852v38.622c0 19.14 4.622 32.425 13.865 39.856 9.242 7.429 21.787 11.143 37.634 11.143z" />
<glyph unicode="&#xe604;" d="M552.482 389.944l116.567 258.702h-238.793l122.226-258.702zM267.517 648.497h-13.92v-401.068h196.461l-182.542 401.068zM662.608 249.395h239.59v-125.703h-902.112v123.737l90.677 0.297v400.771h-90.677v123.81h938.58v-123.81h-89.748l-186.31-399.102z" horiz-adv-x="944" />
<glyph unicode="&#xe605;" d="M687.874 301.143c0-139.942-155.093-214.202-275.461-226.591-41.81-4.301-95.445-8.895-136.595 0.367-13.734 3.055-26.243 6.868-37.606 11.266-3.446 1.442-5.059 3.152-5.059 5.156l-16.616 150.059c0 3.323 1.734 5.057 5.156 5.057l24.73-13.268c3.444-1.051 18.985-91.267 92.781-108.812 47.821-11.46 101.359 0 146.319 15.737 53.734 19.011 107.761 58.033 107.761 120.931 0 57.668-38.364 104.438-115.214 140.431-96.104 44.766-231.356 92.585-231.356 219.993 0 137.45 135.813 199.32 254.643 203.791 43.056 1.541 92.977 3.249 135.276-5.35 3.42-0.659 5.156-2.371 5.156-5.132l11.337-159.613c0-3.422-1.613-5.156-5.059-5.156l-29.102 18.423c-3.446 0-24.339 59.843-33.502 76.752-39.805 73.209-152.527 42.959-206.089 2.394-49.335-37.434-50.973-113.307-15.932-158.561 75.407-97.449 226.418-88.090 296.94-193.946 17.57-26.341 27.491-62.138 27.491-93.93zM772.932 127.334l-65.877 89.996c-4.569-10.385-10.018-20.429-16.029-29.959l81.906-60.037zM381.281 0l11.46 35.799c-3.714-0.294-7.526-0.684-11.363-0.855l-0.097-34.942zM658.185 43.911l-25.853 78.561c-6.501-5.156-13.172-10.141-20.038-14.906l45.891-63.655zM523.226 0l-0.294 62.409c-5.912-2.077-11.825-4.081-17.838-6.011l18.132-56.399zM131.502 768.766l81.615-111.5c2.369 15.37 6.108 29.885 11.337 43.447l-92.952 68.053zM637.292 613.356l-32.548 20.722c-3.249 1.244-6.011 2.956-8.602 5.253l-10.58-7.82 4.569 14.124c-7.159 9.433-13.073 24.337-21.478 45.425-2.958 7.453-6.475 16.225-9.53 23.678l-36.849-50.971 0.391 86.671c-5.937 1.516-12.805 2.567-21.21 2.567-8.211 0-16.592-1.053-24.998-2.567l-24.24-75.604-19.768 61.578c-12.119-5.547-22.798-11.948-31.008-18.058-9.847-7.427-15.664-16.787-19.377-25.853l0.097-28.735-5.449 7.451c-2.295-21.308 3.519-44.008 15.664-59.769 30.35-39.217 78.365-58.986 129.142-79.782 59.354-24.434 126.648-52.023 169.411-116.263 7.453-11.266 13.464-24.143 18.62-37.606l190.72-0.756-221.264 71.009 221.264 70.912-232.334-0.855 188.52 135.837-220.701-72.646 24.827 34.062c-3.91-1.22-8.113-2.004-12.609-2.004h-10.679zM689.778 656.411v-1.246l83.154 113.601-86.671-63.483 3.446-47.527 0.077-1.345zM723.574 285.775l132.879-43.716-136.129 98.133c2.492-13 4.202-26.17 4.202-39.049 0-5.253-0.659-10.213-0.952-15.369zM283.638 238.711l35.333 25.876-20.33-61.846c8.284-15.664 19.451-29.493 35.115-37.509l48.406 67.101-0.294-75.897c15.737 0.097 33.208 2.493 51.731 6.793l18.62 58.011 15.541-48.285c1.929 0.563 3.738 1.050 5.644 1.71 12.022 4.301 31.79 12.805 49.067 25.975l-0.196 31.693 14.027-19.377c11.851 12.682 20.33 28.541 20.33 48.089 0 15.565 0 63.092-94.1 107.199-8.895 4.202-18.229 8.405-27.783 12.706-89.825 40.562-210.855 95.445-223.464 219.235l-163.203 53.758 188.52-135.837-232.334 0.855 221.165-70.912-221.165-71.011 232.334 0.952-188.52-135.934 220.677 72.648-27.197-37.241 20.99-11.361c13.367-6.378 18.132-18.693 21.088-27.392zM658.185 852.186l-0.952-1.343c0.099-0.097 0.294-0.097 0.393-0.195l0.56 1.538zM523.228 896l-10.875-33.696c3.616 0.097 7.062 0.195 10.679 0.365l0.196 33.329zM131.502 127.333l56.226 41.124-3.347 31.034-52.879-72.158zM381.281 896l0.196-56.716c5.352 1.93 10.8 3.837 16.225 5.449l-16.422 51.267zM246.325 43.909l0.563 0.756h-0.268l-0.294-0.756zM291.285 789.753c-6.596-5.35-12.901-10.97-18.814-16.981l-26.146 79.415 44.96-62.433z" horiz-adv-x="912" />
<glyph unicode="&#xe606;" d="M385.748 371.253l122.163 296.042h-238.665l116.502-296.042zM35.54 230.676h240.135l-186.182 436.475h-89.777v105.093h763.45v-105.093h-92.5l-182.475-438.374h239.15v-105.021h-691.801v106.921z" horiz-adv-x="768" />
<glyph unicode="&#xe607;" d="M508.358 648.571h-238.696l116.482-258.7 122.214 258.7zM488.651 247.429h196.442v401.068h-13.918l-182.525-401.068zM89.829 648.497h-89.742v123.81h938.493v-123.81h-90.762v-400.771l90.762-0.297v-123.737h-902.047v125.629h239.587l-186.291 399.176z" horiz-adv-x="944" />
<glyph unicode="&#xe608;" d="M595.494 852.064c-1.481 8.084-12.761 8.907-18.284 9.001h-26.064c-89.233 0.188-277.784 0.915-316.725 2.937-51.398 2.562-97.577 11.116-97.577 11.116s0.821-21.408-12.667-44.723c-30.858-52.688-67.214-91.254-100.797-142.111-10.482-15.863-31.21-35.511-17.085-56.356 14.877-21.762 39.2-1.575 49.399 13.208 3.572 5.052 6.793 10.668 9.354 16.708 0 0 231.252 79.974 312.119 73.725 0 0 4.137-12.034-7.426-55.439-10.365-39.2-22.021-76.756-34.524-113.558-24.605-3.502-47.095-4.866-72.525 0.821-6.321 1.457-10.363 12.667-23.759 12.667-8.272 0-14.877-19.2-16.451-26.086-2.562-11.75-3.574-26.25-6.135-37.907-2.749-12.479-6.533-28.718 4.678-35.063 10.458-6.064 34.147 11.116 37.272 12.573 16.335 8.272 39.294 13.489 55.817 14.242h0.282c-38.19-103.383-82.091-201.523-123.476-306.528-25.805-65.545-42.701-121.265-42.701-121.265l-13.397-9.472c-11.467-8.342-20.28-14.312-31.773-22.772-6.228-4.582-10.552-19.905-3.478-24.677 9.73-6.697 26.156 3.29 39.576 9.636 13.302 6.321 199.291 94.005 199.291 94.005s-6.886 133.463 13.583 209.396c15.981 59.387 29.565 115.297 47.567 165.142 3.103 8.649 6.509 16.992 9.894 25.264 16.075 3.668 32.314 7.709 49.94 13.302 9.917 3.127 46.838 15.7 43.901 34.782-2.843 18.096-48.765 9.472-62.444 8.084-2.372-0.188-4.676-0.633-6.956-1.103 9.895 21.127 20.635 42.866 32.48 67.471 19.294 40.117 34.993 82.442 60.046 119.363 11.563 16.968 25.052 31.939 40.586 45.146 11.093 9.564 31.561 21.315 28.46 38.472z" horiz-adv-x="608" />
<glyph unicode="&#xe609;" d="M731.136 876.542c0-0.002 53.996-5.693 53.996-61.587l200.31-55.916c0 0 50.038-19.209 34.577-84.729l-165.618-618.312c0 0-34.693-46.288-75.124-34.669l-267.189 73.486-267.307-73.486c-40.433-11.619-75.126 34.669-75.126 34.669l-165.711 618.312c-15.367 65.521 34.787 84.729 34.787 84.729l200.286 55.916c0 55.893 53.902 61.585 53.902 61.587h438.217zM729.404 853.468h-434.751c-2.459-0.445-10.143-2.179-17.476-7.028-10.237-6.864-15.085-16.843-15.085-31.485v-17.568c0 0-212.584-59.29-215.677-60.133-5.506-2.553-22.255-12.626-22.255-39.238 0-5.41 0.751-11.455 2.389-18.224 0.282-1.195 161.495-603.203 164.166-612.902 7.050-8.057 28.087-28.906 47.764-23.33l273.608 75.312 273.584-75.312c19.678-5.576 40.643 15.273 47.671 23.33 2.671 9.699 163.977 611.707 164.258 612.902 1.57 6.769 2.295 12.814 2.295 18.224 0 26.612-16.655 36.685-22.231 39.238-3.115 0.843-215.7 60.133-215.7 60.133v17.568c0 14.641-4.849 24.62-14.991 31.485-7.332 4.849-15.109 6.583-17.568 7.028zM257.5 765.529v-594.582c0 0 5.036-38.627 35.958-38.627h166.929l-223.478-61.585c0-0.002-12.79-6.397-19.302 7.683l-164.258 610.065c0 0-6.489 19.232 8.878 24.339l195.273 52.707zM766.648 766.817l195.181-52.707c15.367-5.13 8.972-24.339 8.972-24.339l-164.446-610.065c-6.303-14.080-19.209-7.685-19.209-7.685l-223.456 61.679h166.999c30.829 0 35.959 38.513 35.958 38.513v594.604zM727.482 824.561c8.972 0 10.33-11.525 10.33-11.525v-639.536c0-10.259-10.33-12.906-10.33-12.906h-430.159c-9.066 0-9.066 12.906-9.066 12.906v639.536c0 7.683 9.066 11.525 9.066 11.525h430.159zM559.382 735.427c-36.239 0-67.628-10.798-94.334-32.396-26.634-21.506-39.987-47.671-39.987-78.312 0-32.49 20.849-69.175 62.5-110.005-44.744-15.367-79.881-34.951-105.25-58.656-25.346-23.777-38.067-49.311-38.067-76.672 0-27.993 12.814-54.253 38.347-78.778 25.535-24.527 61.211-36.803 106.89-36.803 46.57 0 83.348 13.095 110.077 39.168 26.798 26.189 40.173 56.009 40.173 89.508 0 33.944-24.527 75.757-73.578 125.629 43.477 19.772 73.204 38.441 89.32 55.917 16.094 17.475 24.151 37.784 24.151 61.022 0 29.095-11.267 52.989-33.592 72.009-22.417 18.859-51.325 28.368-86.649 28.368zM508.877 491.476c50.318-49.591 75.477-90.305 75.477-121.975 0-21.692-8.786-40.527-26.26-56.455-17.475-15.93-39.424-23.893-65.778-23.893-26.822 0-49.778 8.057-68.823 24.081-19.023 16.186-28.532 36.403-28.532 60.93 0 22.886 9.51 44.015 28.532 63.411 18.951 19.326 47.413 37.34 85.385 53.902zM554.627 710.081c21.035 0 38.885-6.583 53.526-19.842 14.641-13.187 21.973-30.124 21.973-50.691 0-36.801-28.368-69.738-85.011-98.644l-7.426 8.127c-25.885 28.088-42.259 47.764-49.217 58.752-6.864 11.080-10.26 22.605-10.26 34.599 0 17.287 7.144 32.935 21.786 46.85 14.454 13.892 32.749 20.849 54.629 20.849z" />
<glyph unicode="&#xe60a;" d="M731.068 876.587c0 0 53.997-5.763 53.997-61.587l200.315-55.919c0 0 50.038-19.209 34.671-84.731l-165.622-618.329c0 0-34.695-46.29-75.127-34.765l-267.197 73.581-267.313-73.581c-40.433-11.525-75.126 34.765-75.127 34.765l-165.714 618.329c-15.369 65.522 34.693 84.731 34.693 84.731l200.387 55.919c0 55.823 53.903 61.587 53.903 61.587h438.135zM729.334 853.513h-434.669c-2.459-0.447-10.237-2.179-17.475-7.028-10.332-6.864-15.087-16.843-15.087-31.485v-17.57c0 0-212.567-59.291-215.683-60.134-5.598-2.553-22.231-12.72-22.231-39.238 0-5.412 0.725-11.455 2.272-18.225 0.282-1.196 161.616-603.22 164.169-612.917 7.146-8.059 28.088-28.909 47.766-23.334l273.616 75.315 273.684-75.315c19.678-5.576 40.55 15.275 47.696 23.334 2.647 9.697 163.888 611.722 164.239 612.917 1.57 6.77 2.295 12.814 2.295 18.225 0 26.518-16.749 36.685-22.231 39.238-3.116 0.843-215.777 60.134-215.777 60.134v17.57c0 14.641-4.755 24.62-15.015 31.485-7.31 4.849-15.017 6.583-17.57 7.026zM257.44 765.478v-594.505c0 0 5.108-38.629 35.959-38.629h166.91l-223.367-61.587c0 0-12.908-6.397-19.326 7.683l-164.333 609.988c0 0-6.419 19.326 8.972 24.434l195.185 52.615zM766.582 766.766l195.185-52.615c15.461-5.13 9.066-24.34 9.066-24.34l-164.451-610.082c-6.395-14.080-19.209-7.683-19.209-7.683l-223.461 61.681h166.91c30.829 0 35.959 38.511 35.959 38.511v594.529zM727.506 824.605c8.974-0.002 10.238-11.527 10.238-11.527v-639.553c0-10.33-10.238-12.908-10.238-12.908h-430.264c-8.972 0-8.972 12.908-8.972 12.908v639.553c0 7.683 8.972 11.525 8.972 11.525l430.264 0.002zM539.561 736.756c-45.681 0-83.842-18.763-114.671-56.269-30.829-37.434-46.22-78.054-46.22-121.815 0-31.109 9.347-57.721 28.182-80.234 18.765-22.419 44.931-33.592 78.711-33.592 15.836 0 31.742 3.021 47.671 9.066 16.024 6.113 32.024 15.085 48.142 27.080-46.032-100.379-122.894-165.716-230.419-196.192l18.577-19.584c79.508 8.503 149.973 45.938 211.372 112.28 61.399 66.249 92.064 134.231 92.064 204.25 0 44.018-12.088 80.985-36.053 110.548-24.081 29.635-56.549 44.462-97.357 44.462zM539.092 711.41c21.318 0 38.886-9.605 52.803-28.838 13.821-19.116 20.779-43.549 20.779-73.371 0-25.182-5.506-53.996-16.398-86.395-13.167-12.72-26.8-22.231-40.996-28.65-14.174-6.301-28.908-9.511-44.088-9.511-18.857 0-34.787 6.583-47.858 19.772-13.001 13.095-19.584 33.031-19.586 59.573 0.002 38.513 9.044 72.738 27.269 102.676 18.108 29.821 40.808 44.744 68.076 44.744z" />
<glyph unicode="&#xe60b;" d="M843.868 123.8c-10.824 21.627-43.254 21.627-64.811 27.039-21.627 5.393-32.432 16.215-248.593 297.17 216.161 280.955 226.966 291.76 248.593 297.172 21.557 5.393 53.987 5.393 64.811 27.020h-270.15c0-10.805 0-21.627-8.18-40.468-8.037-18.913-24.252-45.95-143.174-197.233-118.798 151.282-135.013 178.319-143.121 197.233-8.107 18.842-8.107 29.664-8.107 40.468h-270.205c10.805-21.627 43.237-21.627 64.864-27.020 21.555-5.412 32.432-16.217 248.523-297.172-216.091-280.955-226.968-291.777-248.523-297.17-21.627-5.412-54.059-5.412-64.864-27.039h270.205c0 10.822 0 21.627 8.107 40.54 8.108 18.93 24.323 45.879 143.121 197.25 118.922-151.371 135.137-178.319 143.174-197.25 8.18-18.913 8.18-29.718 8.18-40.54h270.15z" horiz-adv-x="848" />
<glyph unicode="&#xe60c;" d="M951.199 717.295c20.321-50.644 43.628-100.803 53.002-154.974 5.2-20.726 7.156-41.975 11.814-62.78v-91.812c-4.173-25.281-5.987-50.966-12.056-75.844-3.69-23.386-12.44-45.442-18.891-68.041-10.242-28.991-21.813-57.559-35.523-85.139h-874.929c-18.285 35.060-31.51 72.457-43.788 109.875-5.443 22.197-12.843 43.849-15.826 66.529-1.814 13.165-3.871 26.31-7.016 39.153v95.985c2.439 15.362 4.637 30.725 6.371 46.167 2.519 24.556 10.402 48.104 16.935 71.813 10.624 37.559 26.772 73.161 41.731 109.068h878.176zM920.636 685.563c-264.991-0.082-529.84 0-794.75-0.082-10.807-0.080-21.593 0.544-32.377-0.384-5.202-19.374-15.585-36.712-21.412-55.844-8.508-27.257-18.205-54.414-23.325-82.618-5.827-27.399-7.238-55.523-7.561-83.384-0.16-28.285-0.16-56.631 2.761-84.734 2.441-19.072 7.158-37.661 11.351-56.31 4.879-25.926 15.906-49.937 24.091-74.735 5.344-12.216 10.242-24.576 15.121-36.874 278.316-0.145 556.614-0.145 834.85 0 20.483 50.321 40.402 101.589 48.123 155.701 5.907 27.882 4.557 56.47 6.129 84.734-1.411 21.895-0.865 44.032-3.85 65.845-3.388 17.802-5.584 35.826-10.544 53.304-3.308 20.948-11.976 40.482-17.882 60.725-6.533 18.425-14.879 36.147-22.38 54.19-2.821 0.145-5.584 0.384-8.346 0.466zM123.667 653.587c261.303-0.242 522.684 0.16 784.067-0.242 5.040-7.7 7.801-16.613 10.866-25.281 6.694-20.241 14.092-40.241 19.838-60.865 3.548-19.697 8.426-39.212 10.242-59.232 4.878-27.559 3.386-55.583 3.466-83.384v0c0.162-11.651-1.652-23.165-3.226-34.656-1.734-11.411-2.137-23.165-4.576-34.495-2.601-12.136-6.149-24.011-9.295-36.067-5.664-25.281-15.746-49.292-25.201-73.404-0.625-3.61-4.717-3.308-7.561-3.529-254.042 0.065-508.107 0-762.231 0-8.204 0.304-16.693-1.188-24.656 1.089-6.229 13.952-11.976 28.346-16.37 43.083 12.984 7.945 28.346 10.626 43.145 12.682 17.258 1.329 34.656 1.249 51.751-1.734 0.464 8.103 0.544 16.288-0.16 24.414-7.883 5.342-19.133 8.89-21.188 19.374-3.227 15.503 2.842 30.624 6.774 45.281 3.466 14.636 11.249 27.559 16.611 41.491 3.791 10.16 12.278 19.374 10.404 30.805-0.403 5.664-6.069 8.588-10.484 10.947-8.023 3.85-16.37 7.782-25.361 8.81-5.827 0.705-10.383-4.012-12.682-8.81-15.119-31.672-23.467-66.005-37.396-98.202-7.32-18.992-16.311-38.205-31.27-52.54-5.040 10.948-5.989 23.165-8.972 34.657-3.628 18.104-5.827 36.47-7.801 54.654-1.029 25.040-0.869 50.079-0.162 75.199 2.057 28.749 8.206 57.015 13.628 85.219 8.428 28.426 18.125 56.55 29.295 84.029 2.842 0.242 5.685 0.625 8.508 0.705zM178.050 616.614l-5.311-0.505c-6.694-4.898-11.511-12.056-16.148-18.83-2.521-3.226-2.116-8.185 1.734-10.16 9.295-4.497 20.079-4.637 29.454-9.295 6.856-2.441 4.335-11.25 3.932-16.773-4.415-17.642-13.851-33.548-18.266-51.108-1.975-8.75 7.238-13.145 13.549-16.532 9.132-4.333 18.587-11.511 29.211-8.508 8.347 6.613 8.509 19.214 16.23 26.31 6.129 4.799 11.331-3.548 15.503-7.177 20.785-24.656 34.333-54.333 46.853-83.707 9.777-21.27 15.988-43.87 23.002-66.087 7.098-23.062 12.138-47.316 9.919-71.569 0-3.71-1.089-7.803 0.485-11.269 8.105-6.533 17.64-10.948 27.156-15.121 10.564 19.052 24.899 36.147 43.244 48.043 8.105 5.282 17.399 8.023 25.825 12.6-3.85 27.397-14.172 53.304-24.091 78.908v0c-5.907 14.797-7.096 31.027-5.202 46.691 1.271 9.779 10.001 15.988 13.145 24.98 2.601 8.97-5.18 15.744-10.301 22.035-5.12 5.202-9.999 12.52-18.045 13.085-6.774-1.109-12.056-5.908-18.425-8.125-3.932 0.242-6.774 3.468-9.537 5.907-19.838 21.188-31.169 48.365-48.345 71.509-9.617 12.136-17.882 25.907-19.779 41.511-22.822 1.572-45.744 0.867-68.666 1.492-8.871-0.179-17.674 1.266-26.52 1.63-3.533 0.147-7.071 0.043-10.607 0.065zM403.719 625c-5.202-8.588-10.786-16.935-15.826-25.665 12.681-8.668 27.72-13.628 39.675-23.407 3.005-2.519 5.524-6.692 3.63-10.704-3.63-8.972-8.892-17.077-14.334-25.040-4.255-6.371-10.626-11.109-14.799-17.48-3.004-6.39-0.787-14.010 3.69-19.132 5.443-6.632 10.866-13.71 18.205-18.427 7.076-2.924 13.607 3.308 20.463 4.255 5.040-2.379 7.016-8.125 9.535-12.682 12.843-29.152 29.536-56.55 40.402-86.629 5.584-14.496 14.496-30.322 8.81-46.228-7.641-18.589-26.53-28.204-40.24-41.672 5.987-8.508 13.467-15.988 20.806-23.386 8.81 5.12 17.157 11.349 27.075 14.415 27.257 8.346 56.31 8.105 84.352 4.335 18.104-1.109 35.12-8.267 53.084-10.242 3.608 6.694 7.7 13.548 8.426 21.35-2.599 5.502-7.721 9.052-12.459 12.358-11.411 7.561-23.144 14.636-33.466 23.627-11.088 10.545-11.895 26.774-16.29 40.624-9.073 29.375-22.922 57.035-34.656 85.461-8.892 22.277-21.815 42.761-32.519 64.171-6.936 14.415-10.324 30.242-12.138 46.068-1.411 10.644 3.063 20.564 3.932 31.046-6.613 4.012-12.822 8.892-19.919 12.198-7.945-1.19-15.503-4.879-23.709-5.282-14.174-0.787-28.426-0.787-42.6 0.565-9.919 0.867-19.212 4.799-29.131 5.504zM683.829 621.773c-19.516-6.531-37.801-16.229-56.852-24.091v0.002c-11.571-5.364-24.091-8.912-34.495-16.473-0.323-5.664-0.323-11.329 0.162-17.015 12.278-1.171 24.576 0.563 36.772-0.464 3.065 0.162 4.96-2.761 5.041-5.504 3.063-51.348 2.924-102.779 0.403-154.127 3.386 1.572 6.451 3.71 8.73 6.694 9.535 11.411 20.401 21.652 31.672 31.43 3.063 2.903 7.238 5.989 6.753 10.866 0.403 27.802-0.061 55.603 0.162 83.325 1.894 28.426 0.707 56.933 1.652 85.359zM818.889 619.349c-3.881-0.625-2.249-0.157-4.965-1.123-8.972-3.932-16.693-9.999-24.878-15.201-19.616-12.278-38.345-25.745-58.042-37.881-4.96-3.529-11.25-7.561-11.411-14.334-1.432-11.955-0.949-24.093-1.976-36.069-1.029-11.088-1.976-22.197-1.249-33.386 0.145-5.987 4.093-10.866 7.863-15.201 15.604-16.934 32.922-32.922 53.627-43.465 11.592-5.202 22.762-11.351 34.978-14.737 7.398 0.725 13.932 4.818 20.161 8.508 9.132 5.907 18.507 11.592 27.721 17.498 13.689 8.812 24.636 21.169 37.236 31.491 6.552 6.069 15.121 12.278 14.899 22.217 0.947 21.41 4.011 43.385-0.947 64.493-19.454 25.040-47.256 41.571-73.243 58.989l-0.002 0.002c-4.806 2.871-9.443 6.124-14.923 7.639-1.568 0.435-3.232 0.374-4.849 0.56zM785.797 574.263c5.193-0.367 2.982-0.224 6.636-0.451 25.665-4.012 50.403-17.318 66.471-38.043 17.096-21.33 15.906-53.224 2.196-75.984-3.306-6.472-11.411-7.258-17.802-7.48-19.596 0.544-38.023 9.132-53.929 20.161-13.548 9.132-24.032 22.822-28.669 38.506-5.443 21.028-0.565 45.201 14.496 61.107 3.19 2.207 6.909 2.116 10.6 2.185z" />
<glyph unicode="&#xe60d;" d="M951.199 717.295c20.321-50.644 43.628-100.803 53.002-154.974 5.181-20.726 7.156-41.975 11.814-62.78v-91.812c-4.173-25.281-5.987-50.966-12.056-75.844-3.71-23.386-12.44-45.442-18.912-68.041-10.221-28.991-21.813-57.559-35.422-85.139h-875.028c-18.266 35.060-31.491 72.457-43.79 109.875-5.422 22.197-12.822 43.849-15.826 66.529-1.814 13.165-3.85 26.31-6.996 39.153v95.985c2.439 15.362 4.637 30.725 6.371 46.167 2.601 24.556 10.402 48.104 17.015 71.813 10.544 37.559 26.692 73.161 41.651 109.068h878.176zM920.637 685.565c-264.911-0.080-529.84 0-794.771-0.080-10.786-0.080-21.572 0.543-32.276-0.384-5.202-19.374-15.686-36.712-21.513-55.846-8.508-27.257-18.185-54.414-23.224-82.618-5.907-27.397-7.318-55.521-7.561-83.384-0.242-28.285-0.242-56.631 2.681-84.734 2.441-19.072 7.158-37.659 11.331-56.308 4.879-25.928 15.906-49.939 24.112-74.735 5.344-12.218 10.221-24.496 15.121-36.874 278.296-0.145 556.614-0.145 834.93 0 20.383 50.321 40.322 101.589 48.022 155.699 5.907 27.884 4.577 56.47 6.149 84.736-1.411 21.895-0.865 44.030-3.85 65.845-3.388 17.801-5.605 35.825-10.564 53.304-3.308 20.946-11.955 40.482-17.862 60.723-6.554 18.427-14.899 36.147-22.38 54.192-2.821 0.145-5.584 0.384-8.346 0.464zM123.668 653.588c261.383-0.241 522.684 0.162 784.067-0.241 5.040-7.702 7.781-16.613 10.866-25.283 6.774-20.241 14.172-40.24 19.919-60.865 3.548-19.697 8.346-39.212 10.242-59.232 4.878-27.559 3.306-55.583 3.386-83.384v0c0.145-11.653-1.652-23.165-3.246-34.656-1.713-11.411-2.116-23.165-4.555-34.495-2.601-12.138-6.149-24.011-9.295-36.067-5.584-25.283-15.746-49.294-25.201-73.405-0.626-3.608-4.717-3.306-7.561-3.528-254.063 0.065-508.107 0-762.25 0-8.185 0.304-16.695-1.19-24.637 1.009-6.229 14.031-11.894 28.426-16.391 43.163 13.005 7.943 28.346 10.624 43.245 12.761 17.157 1.251 34.656 1.169 51.651-1.814 0.565 8.105 0.565 16.29-0.16 24.416-7.782 5.342-19.132 8.89-21.169 19.454-3.226 15.341 2.823 30.543 6.775 45.199 3.447 14.636 11.249 27.559 16.611 41.491 3.77 10.161 12.278 19.374 10.383 30.886-0.304 5.586-6.048 8.508-10.464 10.866-8.044 3.772-16.391 7.782-25.361 8.73-5.827 0.788-10.383-3.93-12.682-8.648-15.119-31.753-23.467-66.087-37.398-98.284-7.337-19.072-16.309-38.204-31.188-52.538-5.12 10.947-5.987 23.165-9.052 34.656-3.628 18.104-5.827 36.471-7.803 54.656-1.027 25.039-0.865 50.079-0.16 75.199 2.057 28.749 8.185 57.013 13.628 85.219 8.428 28.426 18.104 56.55 29.293 84.028 2.843 0.242 5.666 0.626 8.509 0.707zM178.039 616.614l-5.321-0.505c-6.694-4.898-11.491-12.056-16.128-18.83-2.521-3.226-2.137-8.185 1.734-10.16 9.295-4.497 20.161-4.637 29.454-9.295 6.835-2.441 4.314-11.25 4.012-16.855-4.495-17.56-13.95-33.466-18.347-51.026-1.894-8.75 7.238-13.145 13.549-16.531 9.132-4.335 18.567-11.513 29.293-8.508 8.265 6.612 8.426 19.212 16.128 26.308 6.229 4.799 11.351-3.548 15.524-7.177 20.785-24.656 34.413-54.253 46.853-83.707 9.777-21.27 15.988-43.87 23.002-66.087 7.078-23.062 12.117-47.316 9.919-71.569 0.082-3.71-1.109-7.803 0.463-11.269 8.125-6.533 17.642-10.948 27.177-15.121 10.564 19.052 24.878 36.147 43.325 48.043 8.025 5.282 17.318 8.023 25.745 12.6-3.871 27.317-14.172 53.304-24.091 78.908v0c-5.907 14.797-7.016 31.027-5.202 46.691 1.251 9.779 10.001 15.988 13.145 24.98 2.601 8.97-5.2 15.744-10.322 22.035-5.12 5.202-9.999 12.52-17.942 13.165-6.774-1.19-12.138-5.989-18.507-8.206-3.953 0.242-6.775 3.468-9.537 5.907-19.838 21.108-31.188 48.445-48.345 71.509-9.617 12.136-17.882 25.907-19.779 41.591-22.84 1.492-45.744 0.787-68.666 1.411-8.866-0.176-17.664 1.268-26.503 1.63-3.541 0.147-7.089 0.043-10.634 0.065zM403.721 625c-5.202-8.588-10.807-17.015-15.846-25.663 12.681-8.67 27.72-13.629 39.695-23.407 3.004-2.521 5.524-6.694 3.63-10.706-3.55-8.97-8.912-17.075-14.334-25.039-4.255-6.371-10.626-11.109-14.799-17.48-3.004-6.391-0.807-14.012 3.69-19.132 5.523-6.634 10.866-13.71 18.185-18.427 7.096-2.924 13.628 3.306 20.564 4.253 4.96-2.379 6.936-8.124 9.455-12.681 12.822-29.153 29.536-56.55 40.402-86.63 5.584-14.495 14.476-30.321 8.81-46.228-7.641-18.587-26.53-28.204-40.24-41.672 6.069-8.508 13.467-15.986 20.785-23.386 8.911 5.122 17.178 11.351 27.095 14.415 27.257 8.347 56.31 8.105 84.352 4.335 18.104-1.109 35.12-8.265 53.064-10.242 3.709 6.694 7.721 13.548 8.426 21.35-2.58 5.504-7.7 9.052-12.438 12.358-11.331 7.561-23.144 14.636-33.386 23.629-11.189 10.464-11.976 26.772-16.391 40.624-9.052 29.373-22.902 57.033-34.635 85.46-8.912 22.279-21.734 42.761-32.539 64.172-6.915 14.415-10.221 30.24-12.117 46.066-1.411 10.644 3.063 20.564 3.932 31.048-6.613 4.012-12.843 8.89-19.919 12.198-7.963-1.19-15.524-4.799-23.709-5.282-14.174-0.787-28.426-0.787-42.6 0.563-9.837 0.867-19.212 4.799-29.131 5.504zM861.887 621.773c-19.535-6.531-37.801-16.229-56.772-24.091l0.002 0.002c-11.593-5.364-24.112-8.912-34.495-16.473-0.323-5.664-0.403-11.329 0.080-17.015 12.278-1.169 24.556 0.565 36.854-0.464 3.065 0.242 4.879-2.761 4.96-5.504 3.144-51.348 2.903-102.779 0.382-154.127 3.388 1.572 6.552 3.71 8.83 6.694 9.455 11.411 20.321 21.652 31.572 31.43 3.166 2.903 7.339 5.989 6.854 10.866 0.404 27.802-0.16 55.603 0.162 83.325 1.894 28.426 0.705 56.933 1.572 85.359zM715.725 621.775c-19.536-6.533-37.801-16.23-56.772-24.091v0c-11.592-5.362-24.112-8.911-34.495-16.471-0.323-5.666-0.403-11.331 0.082-17.015 12.278-1.169 24.556 0.565 36.854-0.464 3.063 0.241 4.878-2.763 4.958-5.504 3.145-51.35 2.903-102.779 0.382-154.127 3.388 1.572 6.554 3.709 8.83 6.692 9.457 11.411 20.323 21.652 31.572 31.432 3.166 2.903 7.339 5.987 6.856 10.866 0.403 27.802-0.162 55.603 0.16 83.323 1.896 28.426 0.705 56.934 1.574 85.361z" />
<glyph unicode="&#xe60e;" d="M951.199 717.295c20.321-50.644 43.628-100.803 53.002-154.974 5.2-20.726 7.177-41.975 11.814-62.78v-91.812c-4.173-25.201-5.987-50.966-12.056-75.844-3.69-23.386-12.44-45.442-18.891-68.041-10.242-28.991-21.813-57.58-35.442-85.139h-875.010c-18.205 35.040-31.43 72.457-43.788 109.855-5.443 22.217-12.843 43.87-15.906 66.55-1.734 13.165-3.71 26.31-6.936 39.233v95.904c2.439 15.362 4.657 30.725 6.391 46.147 2.58 24.576 10.382 48.205 16.995 71.834 10.564 37.559 26.713 73.161 41.672 109.068h878.155zM920.648 685.561c-264.931-0.080-529.86 0-794.851-0.080-10.706-0.080-21.511 0.544-32.217-0.403-5.202-19.294-15.746-36.693-21.49-55.825-8.508-27.257-18.205-54.414-23.247-82.618-5.886-27.399-7.318-55.441-7.559-83.384-0.224-28.285-0.224-56.631 2.681-84.675 2.439-19.132 7.177-37.721 11.349-56.39 4.879-25.825 15.908-49.917 24.093-74.735 5.362-12.196 10.242-24.474 15.119-36.854 278.236-0.16 556.614-0.16 834.85 0 20.403 50.321 40.402 101.589 48.123 155.701 5.907 27.882 4.577 56.47 6.229 84.734-1.51 21.975-0.945 44.032-3.951 65.845-3.388 17.782-5.664 35.826-10.544 53.304-3.306 20.948-11.976 40.482-17.882 60.725-6.531 18.425-14.879 36.147-22.277 54.252-2.924 0.16-5.685 0.323-8.428 0.403zM123.66 653.587c261.381-0.242 522.684 0.16 783.985-0.162 5.12-7.721 7.883-16.693 10.947-25.361 6.694-20.241 14.092-40.241 19.838-60.865 3.628-19.697 8.428-39.233 10.242-59.232 4.879-27.559 3.386-55.603 3.468-83.325h0.003c0.162-11.733-1.654-23.224-3.226-34.715-1.734-11.431-2.116-23.084-4.577-34.495-2.58-12.136-6.129-23.951-9.272-36.067-5.687-25.283-15.766-49.314-25.201-73.405-0.647-3.628-4.739-3.306-7.581-3.548-254.044 0.080-508.107 0.080-762.231 0-8.105 0.323-16.693-1.169-24.656 1.108-6.209 14.012-11.895 28.346-16.37 43.083 13.065 7.945 28.346 10.626 43.225 12.682 17.176 1.329 34.575 1.329 51.671-1.734 0.543 8.105 0.543 16.29-0.162 24.414-7.801 5.342-19.132 8.892-21.188 19.454-3.226 15.423 2.843 30.544 6.774 45.201 3.468 14.636 11.271 27.559 16.613 41.571 3.791 10.080 12.298 19.294 10.402 30.805-0.323 5.584-6.067 8.487-10.482 10.866-8.025 3.85-16.37 7.863-25.342 8.81-5.827 0.787-10.402-4.011-12.761-8.73-15.121-31.753-23.386-66.086-37.338-98.282-7.398-18.992-16.208-38.205-31.188-52.54-5.041 10.948-5.968 23.165-9.052 34.657-3.63 18.104-5.827 36.449-7.803 54.654-1.007 25.040-0.785 50.161-0.145 75.199 2.036 28.749 8.105 57.015 13.689 85.219 8.347 28.426 18.045 56.612 29.293 84.029 2.761 0.304 5.605 0.626 8.428 0.707zM178.051 616.655l-5.315-0.486c-6.694-4.96-11.493-12.117-16.15-18.891-2.439-3.226-2.116-8.185 1.734-10.16 9.295-4.415 20.161-4.637 29.455-9.295 6.854-2.441 4.335-11.271 4.012-16.773-4.477-17.642-14.012-33.548-18.347-51.108-1.894-8.75 7.258-13.145 13.548-16.451 9.132-4.415 18.589-11.593 29.293-8.588 8.347 6.612 8.428 19.212 16.148 26.288 6.231 4.82 11.331-3.447 15.585-7.156 20.724-24.656 34.333-54.253 46.792-83.707 9.759-21.27 15.988-43.87 22.984-66.086 7.096-23.064 12.056-47.317 9.919-71.591 0.080-3.69-1.089-7.782 0.483-11.249 8.105-6.533 17.642-10.948 27.177-15.121 10.544 19.052 24.878 36.147 43.225 48.043 8.105 5.262 17.48 8.023 25.825 12.6-3.85 27.399-14.172 53.304-24.091 78.908-5.907 14.799-7.016 31.027-5.202 46.693 1.27 9.777 9.999 15.986 13.165 24.958 2.661 8.992-5.202 15.766-10.322 22.055-5.122 5.202-10.081 12.52-17.964 13.165-6.774-1.19-12.116-5.987-18.507-8.124-3.93 0.16-6.774 3.386-9.515 5.827-19.859 21.188-31.189 48.365-48.365 71.509-9.597 12.136-17.882 25.905-19.758 41.51-22.842 1.574-45.764 0.869-68.687 1.493-8.864-0.125-17.659 1.3-26.498 1.666-3.54 0.145-7.084 0.046-10.626 0.070zM403.714 624.998c-5.2-8.508-10.786-16.934-15.906-25.663 12.762-8.67 27.721-13.629 39.777-23.407 2.983-2.521 5.504-6.694 3.688-10.706-3.608-8.97-8.97-17.096-14.415-25.039-4.253-6.371-10.624-11.028-14.797-17.48-2.985-6.391-0.787-13.95 3.709-19.132 5.424-6.634 10.866-13.71 18.185-18.447 7.098-2.903 13.629 3.326 20.545 4.253 5.040-2.359 6.934-8.103 9.535-12.681 12.762-29.131 29.455-56.53 40.322-86.548 5.584-14.556 14.495-30.382 8.83-46.208-7.721-18.669-26.552-28.206-40.241-41.754 6.048-8.508 13.467-15.906 20.785-23.386 8.892 5.122 17.237 11.411 27.097 14.416 27.237 8.346 56.308 8.103 84.332 4.333 18.185-1.108 35.12-8.265 53.082-10.242 3.71 6.694 7.723 13.549 8.428 21.35-2.601 5.504-7.721 9.052-12.44 12.358-11.349 7.561-23.163 14.636-33.405 23.629-11.17 10.544-11.875 26.772-16.37 40.624-9.134 29.454-22.842 57.095-34.657 85.461-8.89 22.357-21.813 42.761-32.519 64.171-6.934 14.415-10.242 30.321-12.136 46.147-1.411 10.564 3.084 20.483 3.951 30.947-6.612 4.113-12.843 8.911-19.857 12.218-8.105-1.19-15.585-4.879-23.77-5.202-14.172-0.867-28.447-0.867-42.619 0.485-9.919 0.847-19.132 4.797-29.133 5.502zM821.181 626.331c-24.172-10.706-33.951-20.787-38.668-22.823-4.637-2.057-14.415-7.419-25.825-16.148-11.431-8.75-17.48-18.123-17.48-18.123s2.038-6.775-0.705-22.197c-2.679-15.444-4.031-36.309-4.031-36.309 13.425 10.276 27.211 20.132 41.67 28.909-5.881 9.649-4.799 23.038-2.057 33.626 10.786 5.344 33.004 5.344 49.777-7.419 16.773-12.742 27.559-19.454 31.572-33.628 4.033-14.092 1.352-28.184 1.352-28.184-16.775-12.762-36.934-37.016-43.628-42.378-6.774-5.342-12.138-10.080-21.513-16.773-9.455-6.694-19.535-17.48-30.24-26.854-10.786-9.434-28.264-25.583-28.264-25.583 26.853 2.036 56.468 2.741 82.678 4.717 26.23 1.976 57.82-0.705 57.82-0.705 1.251-7.398 0.626-18.749 0.626-18.749 3.386 4.033 24.173 1.976 24.173 1.976 2.055 27.559 28.264 73.243 28.264 73.243l-13.467 15.503c-7.398-8.81-16.128-22.197-16.128-22.197-13.387 0.625-25.523-2.681-32.923-4.012-7.398-1.35-24.878 0.626-24.878 0.626 12.822 19.535 60.483 66.55 60.483 66.55 2.741 31.572 0.705 48.345 0.705 48.345-9.073 10.786-22.217 27.641-26.854 32.297-4.738 4.719-20.161 13.065-26.935 20.161-8.588 8.972-25.523 16.128-25.523 16.13zM708.321 622.478c-19.514-6.531-37.801-16.229-56.772-24.091v0c-11.573-5.362-30.322-10.866-40.724-18.425-0.302-5.687 0.241-13.872 0.725-19.536 12.198-1.109 31.329 1.734 43.628 0.705 3.063 0.16 1.249-5.282 1.329-8.025 3.067-51.348 1.896-112.696-0.623-164.047 3.386 1.574 13.145 9.839 15.423 12.843 9.535 11.411 18.99 19.132 30.24 28.89 3.166 2.924 6.472 9.213 6.067 14.092 0.406 27.802-1.169 64.433-0.865 92.235 1.894 28.426 0.707 56.933 1.572 85.359zM776.144 539.639v0z" />
<glyph unicode="&#xe60f;" d="M949.036 716.81c42.604-79.135 66.982-170.926 66.982-268.81s-24.378-189.676-66.98-268.81h-874.076c-42.605 79.135-66.98 170.926-66.98 268.81s24.375 189.676 66.98 268.81h874.074zM929.002 684.889h-834.009l-8.487-18.763c-30.923-68.349-46.604-141.737-46.606-218.126 0.002-77.751 16.241-152.34 48.27-221.708l8.561-18.541h830.534l8.562 18.541c32.029 69.364 48.268 143.957 48.268 221.708 0 76.392-15.681 149.78-46.606 218.129l-8.487 18.76zM908.407 652.967c28.041-61.967 43.766-131.502 43.766-204.967 0-74.803-16.323-145.514-45.327-208.328h-789.695c-6.704 15.048-13.353 30.174-18.253 45.926 27.843 17.667 63.003 15.695 94.452 12.317v21.84c-27.721 7.277-26.602 34.72-18.76 58.242 7.887 23.661 20.113 45.657 29.959 68.659 3.413 7.98 1.867 14.438-5.598 17.864-7.096 3.253-13.546 6.82-20.024 9.938-9.189 4.425-17.671-1.152-21.168-8.231-13.831-28-21.284-57.347-32.258-87.784-8.334-22.376-18.72-44.998-36.105-61.911-12.192 42.163-16.278 86.857-17.575 131.468 0 73.465 15.729 143 43.766 204.967h792.82zM170.947 615.165c-7.559-7.98-13.44-17.64-15.677-28.279 27.018-3.36 46.901-6.583 37.239-31.642-5.262-13.652-10.94-26.441-16.8-38.921-3.34-7.107-2.594-14.979 5.601-20.442 5.497-3.663 17.362-9.644 23.521-12.041 8.259-3.219 13.356 0.131 15.961 6.159 1.908 4.429 6.233 13.054 8.4 17.362 4.065 8.088 11.189 6.351 16.239-0.84 32.119-45.742 62.49-109.614 81.483-185.926 5.258-21.132 5.041-38.369-1.401-49.004 9.274-6.885 19.657-11.699 31.082-14.56 13.474 25.325 36.867 45.292 68.603 60.761-6.514 25.998-14.868 51.618-25.762 76.725-10.981 35.338-4.337 53.779 6.721 67.76 3.021 3.825 3.091 8.878 0 13.757-5.914 9.33-12.375 16.73-19.038 22.364-4.692 3.968-10.854 4.799-15.961-0.278-3.011-2.99-5.642-6.371-9.242-8.962-36.403 43.124-67.483 89.325-78.962 121.805l-112.007 4.2zM497.161 625.456c-12.882-12.812-64.123-13.090-90.793 0-6.197-10.627-12.44-18.867-18.693-26.46 16.681-7.057 30.027-15.249 39.892-23.777 6.593-5.695 6.731-11.855 2.41-18.722-8.421-13.384-16.539-24.074-25.779-32.055-4.825-4.164-4.079-11.199-1.12-16.8 6.479-12.262 16.498-19.997 26.6-25.202 8.359 8.368 16.72 11.22 21.562 1.963 17.831-34.091 31.177-68.651 47.319-100.524 14.111-27.858 10.464-47.058-5.318-59.921-11.028-8.989-21.652-16.437-30.242-25.201 7.216-7.516 14.86-14.711 22.96-21.562 37.057 30.227 93.237 28.602 161.568 6.721 2.649 8.12 6.204 15.961 10.638 23.52-23.939 21.492-48.927 26.694-57.679 47.604-4.627 11.051-6.932 33.413-12.575 47.652-18.511 46.71-35.869 81.712-64.708 141.071-12.94 26.633-10.013 52.519-3.36 66.924-9.663 4.127-17.143 9.083-22.682 14.771zM901.497 622.445l-150.647-4.478c-1-16.452-7.139-29.923-15.677-42.001 32.717 4.357 67.243 5.623 104.16 2.799l-85.683-73.644 10.363-18.76c45.937-4.163 91.61-8.595 106.684-44.242 1.328-10.453 1.338-20.907-0.278-31.36-6.368-10.202-17.493-18.971-33.044-27.16-19.517-10.283-46.708 1.975-65.78 22.257-9.042 3.465-18.313 5.49-25.783 7.984l-8.4-18.202 87.084-55.163c23.525 21.695 49.055 40.388 78.123 53.762 3.535 19.529 5.538 39.549 5.601 60.203-14.283 35.282-45.083 51.804-84.564 60.761l77.843 107.245zM705.626 622.445c-26.286-17.022-58.083-31.242-92.824-43.96v-19.321h46.763v-166.886l46.061 46.061v184.107zM98.746 286.056l0.152-0.457-0.154 0.456 0.002 0.002z" />
<glyph unicode="&#xe610;" d="M949.040 716.812c42.592-79.128 66.978-170.921 66.978-268.812s-24.376-189.684-66.978-268.812h-874.081c-42.6 79.128-66.976 170.921-66.976 268.812s24.376 189.684 66.976 268.812h874.081zM929.009 684.889h-834.007l-8.494-18.763c-30.925-68.343-46.601-141.74-46.601-218.126 0-77.74 16.246-152.342 48.268-221.706l8.557-18.548h830.534l8.559 18.548c32.032 69.364 48.268 143.966 48.268 221.706 0 76.385-15.676 149.782-46.601 218.136l-8.484 18.753zM908.418 652.976c28.032-61.978 43.762-131.504 43.762-204.976 0-74.805-16.333-145.514-45.332-208.329h-789.697c-7.095 14.88-12.791 30.362-18.241 45.903l0.015 0.036c28.53 17.476 62.484 15.558 94.43 12.297v21.839c-27.72 7.291-26.592 34.731-18.753 58.257 7.881 23.644 20.108 45.655 29.957 68.654 3.408 7.979 1.86 14.452-5.603 17.872-7.096 3.246-13.537 6.816-20.021 9.935-9.192 4.419-17.676-1.161-21.171-8.236-13.827-28-21.279-57.354-32.258-87.784-8.496-22.060-18.394-45.452-36.105-61.913v0c-12.363 42.709-16.968 87.151-17.572 131.471 0 73.462 15.73 142.998 43.762 204.974l792.825 0.002zM170.947 615.17c-7.559-7.979-13.44-17.645-15.677-28.29 27.022-3.366 46.892-6.571 37.236-31.625-5.258-13.665-10.945-26.45-16.806-38.934-3.333-7.096-2.591-14.978 5.601-20.431 5.495-3.666 17.365-9.634 23.526-12.032 8.259-3.226 13.355 0.13 15.957 6.151 1.913 4.431 6.236 13.054 8.399 17.365 4.064 8.086 11.182 6.344 16.236-0.838 32.118-45.752 62.493-109.623 81.483-185.943 5.257-21.129 5.041-38.366-1.398-49 9.267-6.892 19.656-11.697 31.085-14.558 13.472 25.312 36.869 45.278 68.601 60.751-6.506 26.001-14.86 51.623-25.764 76.72-10.979 35.343-4.333 53.784 6.721 67.773 3.021 3.816 3.086 8.881 0 13.752-5.914 9.322-12.367 16.741-19.043 22.364-4.698 3.968-10.86 4.796-15.957-0.268-3.011-3-5.634-6.386-9.236-8.969-36.407 43.119-67.482 89.322-78.966 121.805l-111.998 4.205zM497.155 625.469c-12.88-12.805-64.126-13.085-90.793 0-6.193-10.622-12.43-18.871-18.688-26.462 16.688-7.064 30.020-15.258 39.892-23.784 6.591-5.688 6.731-11.87 2.408-18.731-8.409-13.377-16.538-24.064-25.774-32.043-4.816-4.161-4.074-11.194-1.118-16.806 6.484-12.269 16.495-19.99 26.602-25.204 8.354 8.354 16.72 11.215 21.559 1.956 17.838-34.084 31.172-68.644 47.322-100.514 14.118-27.87 10.462-47.063-5.323-59.933-11.022-8.991-21.656-16.43-30.247-25.204 7.226-7.506 14.86-14.7 22.968-21.548 37.053 30.225 93.235 28.59 161.567 6.721 2.645 8.107 6.204 15.945 10.634 23.526-23.946 21.484-48.923 26.687-57.677 47.59-4.634 11.052-6.934 33.418-12.58 47.665-18.505 46.72-35.871 81.708-64.708 141.073-12.935 26.634-10.022 52.526-3.366 66.934-9.656 4.118-17.15 9.074-22.678 14.763v0zM847.225 634.858c-6.139-83.118-120.3-188.986-121.438-187.546l20.246-14.624c38.441 5.001 79.138 7.398 95.956 8.183 2.473-20.463-1.13-69.806-3.366-89.020 29.752 16.258 53.859 13.537 53.859 13.537s-5.678 55.934-3.408 74.805c9.946 0.85 11.849 1.591 26.3-2.173 7.323 11.419 18.495 33.795 18.495 33.795l-9.324 12.044-8.859-7.839-25.699-0.012c0.905 62.257-6.257 100.451 4.313 132.859l-47.075 25.989zM843.139 542.193v-0.002c0.829-23.48 0.916-20.202 0.561-50.398-0.067-5.601-0.374-11.196-0.561-16.794 0 0-44.010-2.731-50.828-0.345 19.523 20.46 35.523 43.86 50.828 67.536v0 0 0.002zM705.637 622.459c-26.279-17.031-58.085-31.246-92.827-43.977v-19.323h46.763v-166.878l46.065 46.053v184.125z" />
<glyph unicode="&#xe611;" d="M948.975 716.8c0 0 67.055-133.581 67.026-268.797-0.027-135.223-67.043-268.803-67.043-268.803h-875.979c0 0-65.070 133.117-64.978 268.749-0.065 135.745 64.995 268.851 64.995 268.851h875.979zM95.089 684.436c-35.734-82.236-54.405-145.737-54.436-236.336-0.007-90.733 18.775-154.013 54.385-236.443l834.15-0.039c35.71 82.365 54.54 145.763 54.543 236.493 0.032 90.598-18.777 154.013-54.494 236.288l-834.149 0.038zM115.5 653.447l793.272-0.049c29.242-69.444 43.82-128.174 43.861-205.338-0.087-77.179-14.609-135.747-43.885-205.319l-793.134 0.070c-6.496 15.268-12.221 29.991-17.244 44.568 28.735 14.959 64.113 16.167 95.672 11.279l0.041 23.607-7.305 2.917c-1.966 1.147-5.024 3.052-8.595 6.354-21.649 19.516 16.288 92.377 26.305 114.886 4.915 12.942-0.225 18.949-8.463 22.518l-16.672 7.509c-7.409 4.255-16.911 4.207-20.809-6.784-12.983-24.934-20.398-52.144-30.005-78.515-10.708-28.6-19.413-52.376-39.919-72.395-11.247 40.605-16.821 81.396-16.741 129.417-0.015 77.032 14.341 135.7 43.621 205.276zM172.018 616.477l-9.192-11.79-6.26-8.424c-2.736-3.739 0.961-10.815 7.835-12.046l8.876-1.828c7.228-1.71 14.244-3.729 17.63-5.98 7.81-5.001-10.822-49.51-13.889-57.51-7.439-13.242-2.437-19.284 7.398-24.192l17.027-7.987c10.755-4.755 18.225-1.678 22.11 8.641l3.787 8.528c1.756 3.159 3.205 5.719 4.552 7.311l5.396 1.765c37.695-21.168 98.963-178.147 90.885-231.646l-2.268-8.675 29.689-16.606c11.686 25.385 41.955 54.717 69.992 59.785-3.63 18.215-8.532 35.253-14.831 52.449-9.769 26.894-27.74 64.823-7.491 90.906 5.48 6.656 8.719 15.227 0.444 23.671l-13.204 14.768c-6.815 6.258-15.712 5.91-22.825-0.763l-5.83-4.688c-22.581 16.367-33.894 42.72-48.867 65.988-11.31 17.132-27.459 33.952-28.358 55.221l-112.608 3.101zM404.854 625.589l-17.604-27.235c8.948-4.529 51.14-21.924 45.397-33.237-13.285-25.53-22.438-34.468-26.319-37.861-7.023-6.391-7.516-15.157-0.266-23.916l11.824-13.112c7.748-7.724 14.203-6.588 21.85-1.44 3 1.475 7.030 3.268 11.245-5.209 17.428-36.395 43.628-84 53.751-122.088 6.77-25.257-26.955-45.841-42.289-58.982l21.685-23.576c42.982 34.282 118.881 22.144 163.992 7.438l9.19 21.823c-4.029 5.125-8.028 9.305-13.339 13.249l-12.665 8.622c-8.762 5.782-16.753 11.020-22.101 16.722-9.091 9.926-10.037 19.12-12.969 31.891-7.127 30.348-46.816 116.669-60.679 140.539-17.099 29.943-25.634 65.193-16.975 86.929l1.068 5.477-20.873 12.059c-22.694-9.962-70.349-7.776-93.925 1.908zM892.469 635.546l-1.118-1.62-10.998-15.978-104.194-0.060-0.367-3.33-14.104-128.341 4.173 0.003c71.649-0.114 97.923-28.776 102.057-52.151l0.608-6.738c-0.285-21.023-10.554-33.918-29.672-37.49-2.966-0.521-6.156-0.794-9.545-0.794-21.115 0.179-35.797 12.527-39.332 31.836-0.478 2.698-0.717 5.548-0.717 8.521l0.003 2.792-6.477 1.929-1.533-2.295-28.131-42.033 2.135-2.171c16.645-16.954 40.965-27.175 67.961-27.054 7.699-0.020 14.923 0.608 21.659 1.794 45.269 7.817 68.175 41.859 68.002 80.002 0.002 5.135-0.432 10.293-1.333 15.392-6.996 40.344-43.324 75.892-114.227 77.885l3.791 37.827 98.551 0.061 0.003 3.739 0.010 58.252-7.207 0.020zM703.587 621.507l-1.096-0.997c-21.425-19.633-59.179-39.67-81.15-44.894l-2.826-0.684-0.036-2.895-0.111-7.334 37.060 0.017 0.055-177.403-36.983-13.437-0.031-2.57-0.055-3.524-0.046-3.791 130.77 0.003 0.096 3.652 0.16 6.485-3.017 0.666c-18.886 4.381-29.041 13.302-32.794 33.253-0.795 4.514-1.203 9.6-1.196 15.309l-0.087 198.019-3.683 0.056-5.030 0.067z" />
<glyph unicode="&#xe612;" d="M730.875 876.256c0 0 53.955-5.852 53.955-61.631l200.224-55.779c0 0 50.021-19.287 34.572-84.756l-165.489-617.832c0 0-34.666-46.252-75.066-34.644l-267.006 73.429-267.075-73.429c-40.4-11.609-75.068 34.644-75.068 34.644l-165.581 617.832c-15.355 65.469 34.666 84.756 34.666 84.756l200.224 55.779c0 55.779 53.859 61.631 53.859 61.631h437.784zM729.143 853.106h-434.319c-2.458-0.445-10.228-2.178-17.461-7.045-10.322-6.835-15.075-16.807-15.075-31.437v-17.555c0 0-212.419-59.267-215.509-60.087-5.594-2.551-22.236-12.616-22.236-39.207 0-5.407 0.749-11.445 2.294-18.304 0.282-1.007 161.463-602.641 164.13-612.332 7.023-8.052 27.972-28.977 47.729-23.407l273.37 75.254 273.302-75.254c19.756-5.571 40.612 15.355 47.727 23.407 2.669 9.69 163.85 611.325 164.132 612.332 1.545 6.859 2.294 12.897 2.294 18.304 0 26.592-16.736 36.656-22.236 39.207-3.091 0.821-215.603 60.087-215.603 60.087l-0.002 17.555c0.002 14.63-4.751 24.602-14.979 31.437-7.233 4.867-15.005 6.6-17.555 7.045zM766.454 766.524v-594.144c0 0-5.219-38.482-35.953-38.482h-166.845l223.28-61.631c0 0 12.873-6.414 19.195 7.678l164.294 609.591c0 0 6.414 19.195-9.035 24.32l-194.935 52.668zM62.578 712.569c-15.449-5.103-8.965-24.32-8.965-24.32l164.224-609.592c6.484-14.068 19.289-7.677 19.289-7.677l223.28 61.537h-166.775c-30.897 0-35.93 38.598-35.93 38.598v594.12l-195.121-52.666zM297.469 824.221h429.85c8.965 0 10.228-11.517 10.228-11.517v-639.037c0-10.252-10.228-12.803-10.228-12.803h-429.85c-9.035 0-9.035 12.803-9.035 12.803v639.037c0 7.678 9.035 11.517 9.035 11.517z" />
<glyph unicode="&#xe613;" d="M1023.889 651.186c0.002 0-11.926-77.647-67.229-127.901l22.025 0.655c-51.581-56.294-85.514-45.609-85.514-45.609 11.339-11.273 27.645-8.772 27.645-8.772-38.915-33.364-96.77-32.71-96.77-32.71 10.032-6.289 27.645-10.013 27.645-10.013-43.496-19.526-73.050-23.987-91.72-23.4-55.639 1.71-81.707 24.641-81.707 24.641 7.532-17.63 21.354-29.556 21.354-29.556-226.248 22.678-325.263 98.546-325.263 98.546h-89.035l-5.183-5.166v-45.474c0 0-0.521-3.606 3.27-3.606h50.792c0 0 9.108-0.268 9.108-9.696v-41.146c0 0 15.985-43.377-9.445-43.377-25.479 0-9.426 45.204-9.426 45.204v26.604c0 4.060-3.473 3.54-3.473 3.54h-54.649c-10.551 0-9.762 10.283-9.762 10.283v54.784l-5.637 6.608h-139.558v-28.297h-14.159c-21.688 0-25.428 29.22-25.428 29.22h-9.428c0.587 0-0.72-14.611-0.788-15.667-0.788-8.504-0.855-17.092-3.407-25.346-2.432-8.067-7.933-14.744-10.885-22.612-1.761-4.646 0.788-6.424 4.328-8.772 2.499-1.71 4.712-4.193 6.692-6.424 6.542-7.532 11.071-16.707 13.889-26.218 3.137-10.551 4.311-21.622 4.311-32.558 0-7.733-0.319-15.667-1.309-23.4-1.106-8.387-2.751-17.159-6.743-24.69-3.673-6.944-9.376-12.061-15.196-17.178-5.905-5.166-11.071-11.271-16.456-16.957-32.826-34.806-11.523-74.578-11.523-74.578v0c0 0-26.469 8.067-25.093 42.522 1.376 34.152 28.23 53.023 28.23 53.023s-23.584 20.698-23.584 65.971c0 14.292 2.031 28.834 7.6 42.069 2.029 4.915 4.528 9.428 7.799 13.687 1.509 2.029 3.086 4.461 2.683 7.079-0.452 2.818-3.203 4.596-4.913 6.692-2.55 3.137-4.328 6.811-5.955 10.602-4.849 11.742-6.106 24.506-5.905 37.088 0.201 11.926 0.855 24.253 3.992 35.779 1.712 6.49 4.461 12.983 8.069 18.736 9.107 14.493 24.054 23.919 40.492 27.795 0.451 0.067 10.281 1.828 10.281 1.241v19.794c16.976 13.233 32.039 0 32.039 0v-24.508l4.729-5.635h145.195l6.559 8.455v34.922c0 4.262-3.606 4.714-3.606 4.714h-19.927c0 0-1.896-32.038-25.479-32.038-23.601 0-29.222 27.324-29.222 39.569 0 12.262 7.532 35.847 28.298 35.847 20.698 0 24.825-22.68 24.825-22.68l38.932 0.002c0-0.002 9.762 0.988 9.762-11.592v-56.226h147.091c0 0 98.026-64.143 280.895-64.143 182.886 0 314.848 160.275 314.848 160.275zM38.81 409.86c0 0-17.026-4.714-17.026-37.741 0-32.961 9.426-61.259 19.843-61.259 10.366 0 18.802 19.777 18.802 38.647s-4.712 60.353-21.62 60.353zM990.729 596.603c-32.759-29.421-82.091-66.509-143.485-91.803l-1.056-0.454c-40.945-16.707-87.006-28.247-137.144-28.247-24.371 0-47.034 1.191-68.403 3.152l-1.56 0.135c-126.66 11.725-199.458 51.429-215.059 60.805h-82.879v-14.223h19.458c0 0 11.59-10.417 23.852-17.949v0.002c11.003-6.76 100.19-65.988 282.539-90.093 0 0-7.866 11.977-3.808 32.29 0 0 20.582-12.177 38.011-18.871 12.177-4.646 31.384-12.245 59.228-13.167 10.685-0.319 27.643 1.644 51.043 9.108-7.666 4.712-23.064 22.929-23.064 22.929s35.779 1.442 35.845 1.442c1.309 0 32.224 0.336 61.778 13.638l-0.452 0.973c-10.482 7.414-8.001 24.977-8.001 24.977 13.839-0.923 29.623 2.214 29.623 2.214 7.146 1.442 17.765 5.25 31.066 14.493-10.551-0.336-21.169-0.655-21.169-0.655l29.606 26.923c20.516 18.669 34.405 41.549 44.032 62.382zM35.941 523.938c0 0-15.080-8.521-15.080-35.845s5.637-46.196 14.157-46.196c8.455 0 12.245 32.961 12.245 48.090 0 15.080-1.894 33.951-11.322 33.951zM272.604 548.446l-14.159-8.521v-32.039l14.159-8.52v49.080zM207.537 633.288c0 0-15.063-1.896-15.063-24.506 0-22.663 15.063-25.481 15.063-25.481s14.157 3.791 14.157 25.481c0 21.688-14.157 24.506-14.157 24.506z" />
<glyph unicode="&#xe614;" d="M777.423 305.424c0 18.93-15.425 34.355-34.355 34.355s-34.273-15.425-34.273-34.355c0-18.929 15.343-34.273 34.273-34.273s34.355 15.345 34.355 34.273zM615.364 305.424c0 18.93-15.345 34.355-34.275 34.355s-34.273-15.425-34.273-34.355c0-18.929 15.345-34.273 34.273-34.273 18.93 0 34.275 15.345 34.275 34.273zM1024.135 424.593h-151.18c-38.562 0-69.791-31.208-69.791-69.791 0-38.581 31.229-69.811 69.791-69.811l24.66-0.22c0 0 31.529-9.856 31.529-61.658 0-51.722-31.229-62.459-31.229-62.459h-498.353c0 0-31.23 10.737-31.23 62.459 0 51.802 31.45 61.658 31.45 61.658s49.299 0.22 49.379 0.22c39.984 0 72.375 32.492 72.375 72.395 0 39.984-32.391 72.376-72.375 72.376-189.822 0-193.509 56.108-193.509 56.108s-219.168 12.199-255.947 175.36h323.094l24.719 31.449h676.777l-0.16-268.087z" />
<glyph unicode="&#xe615;" d="M760.238 639.048h-108.203c-3.826 8.311-6.569 14.37-6.569 14.37h-394.933c0 0-2.912-6.313-6.569-14.37h-108.119l-19.26 24.17 38.117 39.030h586.595l38.117-39.030-19.176-24.17zM670.551 563.241l32.056-33.801h-509.215l31.971 33.801h445.187zM591.322 255.255v141.493l16.027 21.429h48.575l16.029-21.429 0.085-90.177-80.717-51.316zM407.567 159.657v237.090l16.029 21.429h48.573l16.029-21.429 0.085-176.463-80.717-60.628zM223.875 64.081v332.667l16.029 21.429h48.49l16.114-21.429 0.084-271.954-80.717-60.713zM-0.418 808.708l50.084-115.772 52.55-37.2 23.83-31.037h111.372l-24.172-53.315-31.461-33.312-33.056-87.095v-423.417h36.202l46.577 24.233 77.889 58.545h34.801l71.086 37.031 77.805 58.46h34.459l71.491 37.287 77.146 49.084h17.367l53.719 27.976v130.717l-32.971 87.093-31.546 33.312-24.172 53.4h110.606l24.596 31.037 52.55 37.052 50.084 115.92h-896.836z" horiz-adv-x="896" />
<glyph unicode="&#xe616;" d="M680.774 178.78c-198.468-85.767-430.505 1.963-520.486 199.402-56.41 123.645-41.351 260.002 21.405 369.999 27.607 48.271 72.765 94.841 72.765 94.841-218.293-100.084-314.81-358.866-215.206-577.447 99.702-218.866 358.961-315.767 577.83-215.97 118.306 53.873 201.006 154.508 236.252 270.036 0 0-63.212-93.643-172.561-140.86z" horiz-adv-x="853" />
<glyph unicode="&#xe617;" d="M528.655 410.913c0-63.872-26.564-115.714-59.322-115.714s-59.237 51.842-59.237 115.714c0 63.852 26.479 115.61 59.237 115.61s59.322-51.758 59.322-115.61zM205.358 203.288h527.951l-37.349-130.019h-453.253l-37.349 130.019zM291.348 550.221l-290.562 91.994 186.791-400.335h563.511l186.791 400.335-290.562-91.994-177.901 263.977-178.068-263.977z" horiz-adv-x="939" />
<glyph unicode="&#xe618;" d="M106.539 393.658c0.806-3.69 0.184-7.033 0.092-11.254-0.184-9.914 1.082-20.084 2.698-29.908 6.318-40.813 25.411-74.573 54.511-103.673 14.665-14.595 30.715-27.924 47.017-40.629 8.187-6.296 16.464-12.522 24.858-18.724 4.221-3.067 10.815-12.522 12.774-2.446 1.891 9.455 1.638 15.957 6.941 24.605 11.438 18.54 45.681 0 47.111-17.133 1.452-17.109 7.124-65.649 47.109-69.984 39.916-4.221 55.665-9.986 69.891-15.657 10.539-4.243 26.218-0.901 37.125 0.253 15.218 1.638 30.346 3.874 45.472 6.502 4.774 0.806 10.377 0.713 12.522 5.926 2.167 5.234-1.615 11.092-5.12 14.597-8.556 8.462-21.883 12.175-32.606 16.579-9.108 3.69-18.193 7.38-27.486 10.447-11.068 3.69-22.414 5.396-30.715 14.595-12.151 13.421-13.766 32.882-13.143 50.27 0.713 18.816 2.975 38.277 12.52 54.926 6.572 11.438 11.715 23.706 17.111 35.765 3.159 6.941 14.872 32.79 7.125 39.084-7.31 6.134-23.706-4.403-25.689-12.059-4.219-17.109-35.581-17.109-35.581-17.109s-52.874 1.43-75.657-8.556c-22.874-10.008-85.663 2.79-106.993 32.79-1.454 2.053-9.547 1.246-11.991 2.698-8.371 5.050-9.363 29.1-0.901 34.403 11.438 7.125 0 52.782-41.344 52.782-13.513 0-28.916-2.075-39.455-11.436-7.47-6.572-8.185-14.413-4.588-23.243 1.615-4.058 4.058-7.656 5.671-11.807 0.278-0.899 0.532-1.707 0.715-2.606zM262.646 688.214c0 0-86.217-21.077-79.092-85.228 0 0-45.126-14.665-57.924-56.009-12.867-41.438 2.79-52.874 19.924-52.874 17.201 0 31.428 7.101 31.428 7.101s25.665 5.673 39.985-4.219c14.227-10.008 75.587-8.556 89.907 11.436 14.227 19.992 47.017 0 61.336-34.335 14.228-34.219 58.455-45.657 72.774-4.219 0 0 12.798 54.211 0 127.008 0 0-44.227 39.984-102.774 49.9-58.547 9.984-67.009 14.319-75.564 41.438zM610.676 504.087c0 89.907-94.128 119.885-94.128 119.885s-21.328 4.243-21.328 21.444c0 0-36.572-0.531-58.016 10.907 0 0-19.094 4.772-19.094 17.548 0 12.889-95.578 38.209-62.051 66.041 0 0 248.322 57.646 376.6-196.555 0 0-53.429 27.832-53.429-47.111 0-51.791 34.681-67.632 63.505-64.749 0 0 51.883-180.159-200.497-275.533 0 0-18.195 5.304-10.631 22.506 7.472 17.019-10.723 17.019-10.723 17.019s-25.663-2.053-25.663 34.335c0 36.386 9.638 39.545 9.638 39.545l38.463 29.978c0 0 8.554 7.494 1.060 17.109-7.562 9.639-26.749 32.167-26.749 43.882 0 8.554 5.142 15.403 10.815 18.562 0 0 82.229-12.612 82.229 125.187zM426.667 61.101c-201.581 0-365.6 164.041-365.6 365.624 0 201.581 164.019 365.6 365.6 365.6s365.6-164.019 365.6-365.6c0-201.583-164.019-365.624-365.6-365.624zM426.667 852.578c-235.179 0-425.969-190.674-425.969-425.853 0-235.271 190.79-425.969 425.969-425.969 235.271 0 425.969 190.698 425.969 425.969 0 235.179-190.698 425.853-425.969 425.853z" horiz-adv-x="853" />
<glyph unicode="&#xe619;" d="M464.364 234.65l-31.462 147.958h-15.816l-25.629-151.815c9.909-90.699 25.629-118.376 25.629-118.376h15.816c19.697 53.282 31.462 122.233 31.462 122.233zM621.916 360.645l-143.908 46.531-7.811-13.647 118.666-98.051c83.538-36.815 115.265-36.91 115.265-36.91l7.907 13.742c-36.26 43.612-90.119 88.335-90.119 88.335zM146.799 272.309l7.811-13.742c0 0 31.848 0.193 115.36 36.91l118.666 98.051-7.811 13.647-143.908-46.531c0 0-53.859-44.723-90.119-88.335zM712.035 580.832l-7.907 13.67c0 0-31.727-0.096-115.265-36.838l-118.666-98.028 7.811-13.742 143.908 46.602c0 0 53.859 44.747 90.119 88.335zM236.918 492.497l143.908-46.602 7.811 13.742-118.666 98.028c-83.512 36.743-115.36 36.838-115.36 36.838l-7.811-13.67c36.26-43.588 90.119-88.335 90.119-88.335zM423.016 743.472h15.718c0 0 15.84-27.58 25.629-118.376l-25.629-151.815h-15.718l-31.56 147.862c0 0 11.887 69.024 31.56 122.329zM359.922 302.734v-69.024l-45.397-105.477 23.723-35.512 35.417 72.979c0 0 11.861-84.84 37.586-116.4h35.417c0 0 33.512 59.237 39.443 118.376l35.512-72.979 21.651 37.49-39.443 100.582v67.048l59.235-37.49 68.543-83.441 43.226 0.674-46.338 66.565c54.535-23.723 122.523-23.337 122.523-23.337l17.335 30.979c-15.068 37.755-83.249 89.47-83.249 89.47l81.007-4.726-19.408 38.067-111.696 10.44-55.282 42.842 55.282 36.934 111.696 10.44 19.408 37.972-81.007-4.628c0 0 68.181 51.714 83.249 89.469l-17.335 30.981c0 0-67.988 0.386-122.523-23.363l46.338 66.589-43.226 0.676-68.543-83.538-64.154-41.155-0.939 72.881 45.3 102.56-23.627 35.512-35.512-72.905c0 0-11.861 84.767-37.465 116.303h-35.417c0 0-33.633-59.139-39.564-118.376l-35.415 73.003-21.746-37.49 39.467-100.582 6.871-74.86-63.77 45.109-68.446 83.538-43.324-0.676 46.338-66.589c-54.535 23.748-122.522 23.363-122.522 23.363l-17.335-30.981c15.068-37.755 83.152-89.469 83.152-89.469l-80.91 4.628 19.407-37.972 111.602-10.44 51.038-38.912-51.038-40.864-111.602-10.44-19.407-38.067 80.91 4.726c0 0-68.084-51.715-83.152-89.47l17.335-30.979c0 0 67.987-0.386 122.522 23.337l-46.338-66.565 43.324-0.674 68.446 83.441 62.829 40.407zM502.697 873.348h6.388c0 0 89.854-135.13 96.268-144.751 11.573-0.193 177.973-2.724 177.973-2.724l75.824-145.691c0 0-73.172-143.256-78.355-153.238 5.183-10.076 78.355-153.308 78.355-153.308l-75.824-145.789c0 0-170.064-2.531-182.601-2.724-0.652-1.229-1.592-2.821-1.592-2.821-2.917-5.088-74.039-123.1-82.138-136.457l-3.471-5.763-164.159-0.096c0 0-90.409 135.613-96.799 145.329-11.597 0.096-175.73 2.531-175.73 2.531l-75.824 145.789c0 0 73.172 143.232 78.355 153.308-5.183 9.982-78.355 153.238-78.355 153.238l75.824 145.787c0 0 167.823 2.435 180.142 2.628 6.221 10.561 85.612 144.751 85.612 144.751h160.109z" horiz-adv-x="868" />
<glyph unicode="&#xe61a;" d="M801.154 473.464l-22.036 1.886 25.738-60.679c-110.251 69.864-214.984 33.108-214.984 33.108-11.018 44.124 1.884 104.733 1.884 104.733 112.034 53.241 282.911-12.904 282.911-12.904-55.142-36.687-73.513-66.144-73.513-66.144zM658.99 400.954l-26.827 13.716c12.834 11.018 27.571 9.185 27.571 9.185l-0.744-22.902zM569.668 387.17c-40.405 23.852-235.204 124.937-431.751 108.384 0 0 78.978 27.571 145.138 38.572 0 0-14.667 23.852-95.548 62.442 0 0 180.062-1.833 367.493-115.751 0 0 0-31.205 11.018-56.96 11.018-25.668 27.571-18.301 27.571-18.301s25.668-20.272 47.756-27.571c0 0-31.273-14.72-71.678 9.185zM837.91 405.556c0 0-6.226 19.459-19.060 47.031 0 0 35.613 39.316 85.204 64.985l-66.144-112.015zM978.379 642.11c-24.596 0-44.592-19.942-44.592-44.609 0-12.281 4.999-23.368 13.042-31.481l-8.786-14.927-27.105 1.072c-12.626 4.878-27.295 10.621-27.295 10.621-7.421 2.836-182.224 69.309-302.56 12.092l-11.087-5.277-2.56-11.952c-0.346-1.556-4.861-23.782-6.349-51.753-143.582 85.465-285.003 107.622-344.262 113.504-63.498 6.279-126.684 0.138-126.684 0.138 84.531-39.523 136.352-72.025 136.352-72.025s-77.559-10.604-225.466-83.181l138.981 6.487c207.097 17.435 408.573-99.995 417.084-104.994 34.335-20.342 68.514-20.946 88.042-12.834 47.498 19.528 38.849 78.442 38.849 78.442 31.619-3.251 69.050-13.319 107.571-37.707l27.087-17.626-82.697-142.838 31.22-22.036 192.896 314.201-3.649 14.65 8.856 15.066c4.116-1.28 8.511-2.232 13.111-2.232 24.666 0 44.592 20.012 44.592 44.592 0 24.666-19.925 44.609-44.592 44.609z" />
<glyph unicode="&#xe61b;" d="M165.086 938.667v-0.002h396.314l-44.902-484.401-103.808 254.899-137.984-794.496-90.598 824.602-83.917-423.117-100.096 555.313 171.213 0.283-6.221 66.918zM526.686 905.259l-241.28-1.792-3.302-778.213 114.688 683.595 97.101-228.685 32.794 325.094zM178.295 838.957l-91.008-0.488 15.898-367.616c0 0 8.32 31.411 11.213 47.309v0.002c20.685 107.085 63.898 320.794 63.898 320.794z" horiz-adv-x="576" />
<glyph unicode="&#xe61c;" d="M401.62 495.343c14.333-20.972 22.386-106.344 22.386-106.344 36.407-15.939 106.919-1.222 106.919-1.222 1.391 60.184-26.508 119.001-26.508 119.001-45.396-8.989-102.798-11.433-102.798-11.433zM401.236 365.87c12.271-33.242-1.029-120.605-1.029-120.605 48.415-38.182 110.107-42.592 110.107-42.592 33.795 67.589 29.409 161.591 29.409 161.591-60.208-19.101-138.486 1.608-138.486 1.608zM388.413 679.778c0 0 55.631 31.087 58.89 60.59 3.284 29.481-8.149 31.159-16.37 62.246-8.149 31.181 9.827 45.873 9.827 45.873s-45.875-24.52-54.025-52.417c-8.245-27.803-1.678-44.198 4.866-58.986 6.543-14.691 6.543-37.629-3.188-57.306zM408.259 669.015c-12.343-0.456-23.105-1.031-24.231-4.386-1.126-3.284 2.326-16.968 5.897-29.312 3.451-12.559 8.054-24.615 11.242-26.58 2.9-1.797 12.056 0.744 23.967 2.324 13.757 1.773 26.293 1.606 27.899 4.41 1.678 2.804-2.157 15.531-6.567 28.641-3.835 10.953-7.765 22.482-11.791 24.255-4.219 1.773-14.693 1.128-26.414 0.649zM360.419 587.742c0 0-184.982-126.573-145.004-302.401 0 0 114.493 63.85 163.651 283.226 0 0 0.742 16.010-18.647 19.174zM356.13 610.967c0 0 2.708 14.333 4.482 31.925 0 0-159.626 22.579-242.579-14.691 0 0-86.979-118.521-74.252-205.141 0 0 23.799 0 33.435 7.958 0 0 59.633 71.448 101.024 105.434 0 0 105.050 67.301 171.609 72.742l6.281 1.773zM5.026 706.287c0 0 199.603 39.881 325.914-32.956 0 0 15.171-11.433 36.791 8.317 0 0-99.418 109.916-172.928 111.043 0 0-105.697-23.2-193.995-77.416l4.219-8.987zM502.453 603.394c88.393-206.268 225.92-208.329 225.92-208.329-9.827 180.047-207.848 234.549-207.848 234.549-17.881-8.436-18.072-26.22-18.072-26.22zM507.126 649.268c65.457 13.015 184.912-22.938 184.912-22.938 49.157-21.356 126.022-73.677 126.022-73.677 11.505-4.866 34.466 1.678 34.466 1.678-11.529 86.692-127.724 176.763-127.724 176.763-90.047 13.015-237.329-52.441-237.329-52.441 6.543-16.37 13.111-29.385 13.111-29.385h6.542zM806.364 841.752c-99.802 27.803-207.848 21.356-207.848 21.356-70.417-21.356-135.849-154.305-135.849-154.305 26.22-13.109 37.629 2.062 37.629 2.062 101.504 104.764 304.463 121.158 304.463 121.158l1.604 9.73zM375.207 226.188c0-48.415-55.796-165.905-55.796-165.905 26.868-45.778 101.024-70.705 101.024-70.705 69.291 72.096 92.682 184.649 92.682 184.649-60.087 0.551-137.911 51.961-137.911 51.961zM494.208 525.857c-13.278 55.822-35.28 74.9-35.28 74.9-38.205-4.386-58.721-11.025-58.721-11.025 14.619-3.668 16.106-72.767 16.106-72.767 40.363 0.384 77.896 8.892 77.896 8.892z" horiz-adv-x="853" />
<glyph unicode="&#xe61d;" d="M789.777 889.39l-356.9-778.315h-16.567v-51.236c20.808-8.404 35.519-28.892 35.519-52.721 0-31.357-25.366-56.829-56.75-56.829-31.462 0-56.829 25.472-56.829 56.829 0 23.934 14.684 44.317 35.598 52.721v51.236h-21.204l-352.236 778.315h789.367zM274.196 781.64h-165.646l270.493-592.777h32.341l270.252 592.777h-165.432v-13.162c15.915-0.514 35.094-4.937 37.089-23.603 2.132-19.395-11.464-38.033-18.422-55.107-0.109-0.217-139.51-315.46-139.51-315.46s-141.073 315.351-141.073 315.46c-6.446 15.698-22.765 48.795-15.078 65.007 5.475 11.814 23.601 13.379 34.985 13.703v13.162z" horiz-adv-x="811" />
<glyph unicode="&#xe61e;" d="M580.265 192.888c0 0 12.495-45.577-76.515-45.577-89.090 0-74.592 49.722-74.592 49.722h-374.784l109.972 427.196 10.353 3.693-108.204-423.601c0 0 85.946 18.27 128.693 24.557 42.827 6.364 236.052 36.46 318.933-38.054 0 0 55.851 28.918 173.877 28.918s209.196-20.647 265.126-14.42l-102.822 392.738 14.498-6.207 102.84-398.966h-387.376zM183.755 637.195l11.511 4.144-96.082-406.705c0 0 119.421 26.776 216.878 25.557 97.439-1.159 149.792-29.703 149.792-29.703s-80.819 23.791-162.855 20.176c-82.017-3.517-166.823-19.782-222.674-32.826l103.429 419.357zM203.931 649.629l12.67 4.596-90.701-391.658c0 0 70.132 7.898 96.299 11.885 27.249 4.145 150.873 29.703 261.453-39.211 0 0-105.825 42.825-204.423 33.318-98.697-9.528-139.066-17.896-168.827-23.789l93.529 404.859zM235.481 681.631l21.255-17.642-76.36-363.663c0 0 42.296-1.847 100.149 10.057 56.716 11.65 152.248-13.201 216.702-73.747 0 0-97.988 73.511-235.815 53.257-53.395-7.759-120.090-14.203-120.090-14.203 0.079 0.157 94.159 405.941 94.159 405.941zM286.281 742.706c0 0 15.5-61.075 77.126-64.689 61.606-3.674 130.99 47.049 146.569-58.542 0 0-4.222-372.642-4.222-372.721 0 2.377-11.139 9.607-12.672 10.904-11.59 9.056-24.006 17.266-36.755 24.713-37.835 22.316-80.346 41.962-124.704 45.124-25.853 1.826-51.412-2.161-76.655-7.151-36.519-7.052-59.858-5.284-59.858-5.284l91.172 427.646zM524.474 625.838c0.609 0.159 0.923 0.237 0.923 0.237 0.688 0.157 63.452 16.186 117.023 16.186 26.011 0 48.346-5.755 67.992-10.745 21.943-5.678 40.9-10.51 57.853-5.284 11.964 3.673 24.105 8.428 34.222 12.73l111.268-398.495c0 0-289.898 49.72-389.359-24.793l0.079 410.163zM837.415 608.572l103.274-396.039c0 0-47.64 0-158.455 13.515-110.816 13.418-232.967-8.368-232.967-8.368s108.733 52.864 377.926 11.433l-107.438 387.748 17.661-8.289zM904.856 600.911l-36.912 0.215-20.569 9.134-1.983 6.915-26.718 12.573-8.506 27.011c0 0-18.563-10.353-45.517-18.644-26.933-8.289-66.301 16.58-122.23 16.58-55.869 0-120.088-16.58-120.088-16.58-26.875 74.592-57.953 70.446-136.689 53.866-78.638-16.56-101.446 93.175-101.446 93.175l-24.851-107.674-30.017 25.853-9.115-38.661-20.883-7.287-1.925-6.149-18.801-6.757-1.452-5.129-20.707-8.289-5.697-24.026h-34.299l-116.023-445.228h418.376c0 0-3.144-42.433 82.331-42.433 85.415 0 89.561 38.287 89.561 38.287h432.872l-118.714 443.245z" />
<glyph unicode="&#xe61f;" d="M553.095 795.66c112.92 0 160.609-117.659 160.609-160.683 0-45.182-27.616-87.81-27.616-87.81 65.329 35.183 113.017-30.048 113.017-30.048 37.591 19.949 115.425 0 115.425-80.365 0-80.341-70.267-92.846-70.267-92.846h-273.626l203.36-190.73-122.994 17.444 183.187-193.162-549.659 318.66 165.646-20.048-90.341 67.837h-276.132c-132.968 70.267-80.242 185.718-25.085 218.271 55.231 32.678 125.498-9.975 125.498-9.975-40.12 85.279 40.146 170.682 110.413 170.682 70.269 0 105.452-52.726 105.452-52.726s40.12 125.5 153.114 125.5zM408.789 344.206l114.855-98.85-115.823 10.272 287.075-168.45-113.888 117.659 115.722-16.003-166.214 155.075-121.728 0.297z" horiz-adv-x="917" />
<glyph unicode="&#xe620;" d="M494.317 234.467h-82.253v177.208h82.253v-177.208zM385.797 234.467h-82.251v177.208h82.251v-177.208zM412.064 583.148h-26.443l0.176-151.975h-82.251v151.711h-26.289v-151.711h-69.458v-19.497h69.458v-177.208h-69.458v-18.639h69.458v-194.903h26.289v194.903h82.251v-194.903h26.267v194.903h82.253v-194.903h23.782v194.903h74.624v18.639h-74.624v177.208h74.624v19.497h-74.624v151.711h-23.782v-151.711h-82.253v151.975zM624.311 20.837h174.131v347.559h-174.131v-347.559zM0.278 20.926h174.131v347.471h-174.131v-347.471zM624.398 423.194h174.044c0 257.835-192.155 366.353-192.155 366.353l-61.041-162.877c0 0 79.152-60.952 79.152-203.476zM253.561 626.67l-61.039 162.877c0 0-192.155-108.518-192.155-366.353h174.042c0 142.524 79.152 203.476 79.152 203.476zM233.207 832.497h332.37l-72.359-205.827h-185.387l-74.624 205.827z" horiz-adv-x="811" />
<glyph unicode="&#xe621;" d="M803.773 393.413h-17.459c0 0-8.274 16.036-33.097 35.364l0.065 88.62c22.374-11.965 39.371-23.334 50.558-31.345l-0.067-92.64zM679.59 467.75c-19.395 7.496-39.948 14.232-65.93 19.13v80.876c23.781-4.915 45.824-11.187 65.93-18.171v-81.835zM545.775 494.973c-10.79 0.579-22.042 0.893-33.809 0.893-11.368 0-23.2-0.314-33.743-0.826l0.067 81.9c10.656 0.778 21.712 1.159 32.898 1.225h1.176c11.37-0.067 22.557-0.447 33.413-1.225v-81.966zM342.142 466.905l0.065 81.983c19.859 6.968 41.638 13.24 65.236 18.22l0.183-80.99c-24.873-5.047-46.932-11.699-65.483-19.214zM270.385 424.706c-21.513-18.435-29.076-33.097-29.076-33.097h-21.082v94.444c11.054 8.011 28.001 19.263 50.159 31.145v-92.491zM953.359 392.254c-9.764 23.136-7.893 95.090-7.893 95.090h-34.125c0 0 15.838 7.298 15.838 30.5 0 0 1.804 36.54-40.281 36.54-42.083 0-38.393-47.529-38.393-47.529s-127.095 114.369-336.026 115.197h-1.473c-208.614-1.026-335.512-115.197-335.512-115.197s3.69 47.529-38.327 47.529c-42.085 0-40.281-36.54-40.281-36.54 0-23.202 15.838-30.5 15.838-30.5h-34.125c0 0 1.804-71.955-7.96-95.090h-70.714v-75.645c0 0 60.95 8.538 60.95-85.327h193.871c0 0-4.849 207.258 256.061 207.307h2.383c260.977 0 256.061-207.307 256.061-207.307h193.937c0 93.865 60.884 85.327 60.884 85.327v75.645h-70.714z" />
<glyph unicode="&#xe622;" d="M728.399 387.48c0-20.236 16.445-36.681 36.681-36.681 20.234 0 36.664 16.445 36.664 36.681 0 20.234-16.43 36.664-36.664 36.664-20.236 0-36.681-16.43-36.681-36.664zM765.080 486.358c54.485 0 98.877-44.326 98.877-98.877 0-54.485-44.392-98.895-98.877-98.895-54.554 0-98.895 44.409-98.895 98.895 0 54.552 44.341 98.877 98.895 98.877zM765.080 518.646c-72.491 0-131.234-58.743-131.234-131.166 0-72.441 58.743-131.185 131.234-131.185 72.422 0 131.232 58.743 131.232 131.185 0 72.422-58.81 131.166-131.232 131.166zM1017.521 460.222l6.219-100.705-64.108-19.128c-2.481-10.143-5.7-20.035-9.69-29.539l43.942-54.554-62.147-68.432-60.37 30.913c-9.305-5.699-34.251-24.878-29.339-14.937 2.348 4.794-2.364-73.144-2.364-73.144l-101.961-1.241-21.408 66.203c-10.093 2.616-19.85 6.086-29.271 10.226l-48.802-49.12-75.827 70.914 35.692 55.743c-6.42 10.344-11.919 21.342-16.312 32.876l-75.373 5.885v90.764l66.019 13.696c2.616 12.959 6.472 25.465 11.45 37.386l-43.94 58.407 63.454 70.864 52.524-41.392c10.209 6.873 21.158 12.909 32.608 17.821l6.89 75.827h92.071l11.383-62.281c17.3-2.749 33.932-7.796 49.389-14.804l49.891 50.964 73.412-60.972-40.269-59.918c8.317-12.254 15.256-25.482 20.688-39.431l65.55 1.108zM222.256 465.854c0-20.234 16.43-36.731 36.664-36.731 20.236 0 36.681 16.497 36.681 36.731 0 20.236-16.445 36.681-36.681 36.681-20.234 0-36.664-16.445-36.664-36.681zM258.92 564.682c54.485 0 98.895-44.343 98.895-98.828 0-54.552-44.409-98.877-98.895-98.877-54.552 0-98.877 44.326-98.877 98.877 0 54.485 44.326 98.828 98.877 98.828zM258.92 597.038c-72.489 0-131.232-58.743-131.232-131.185 0-72.489 58.743-131.232 131.232-131.232 72.441 0 131.185 58.743 131.185 131.232 0 72.441-58.743 131.185-131.185 131.185zM511.38 538.612l6.219-100.772-64.108-19.062c-2.499-10.226-5.7-20.050-9.69-29.606l43.94-54.552-62.147-68.367-60.387 30.915c-9.288-5.767-34.183-24.895-29.338-15.005 2.364 4.796-2.347-73.144-2.347-73.144l-101.963-1.241-21.425 66.205c-10.074 2.681-19.9 6.153-29.271 10.276l-48.785-49.104-75.894 70.849 35.693 55.724c-6.354 10.361-11.853 21.359-16.312 32.876l-75.307 5.968v90.764l66.002 13.681c2.615 12.909 6.487 25.416 11.467 37.335l-43.94 58.407 63.454 70.864 52.524-41.392c10.209 6.941 21.072 12.909 32.539 17.872l6.941 75.776h92.071l11.401-62.215c17.283-2.816 33.864-7.863 49.37-14.87l49.91 50.949 73.344-60.957-40.218-59.866c8.332-12.305 15.273-25.465 20.704-39.48l65.551 1.172z" />
<glyph unicode="&#xe623;" d="M997.356 298.906l-729.489 184.999c-50.773 48.486 1.195 213.304 1.195 213.304l-73.126 16.23-88.429-88.885-22.267-94.264-27.196 6.895c-18.854 4.726-38.043-6.711-42.836-25.564l-14.060-55.516c-4.794-18.787 6.642-38.026 25.496-42.769l29.23-7.417-40.011-169.359 175.078-44.416 50.251 166.736 724.83-183.757c18.854-4.792 37.977 6.576 42.769 25.429l14.060 55.518c4.794 18.92-6.642 38.11-25.496 42.836z" />
<glyph unicode="&#xe624;" d="M205.817 99.234c-35.5 2.708-77.558 22.383-77.558 22.383l130 239.925-52.442-262.308zM460.851 522.232v245.074c28.158 7.274 43.199 18.019 43.199 31.046 0 24.129-34.268 46.512-144.102 46.512-109.812 0-150.371-22.383-150.371-46.512 0-13.027 16.698-23.861 46.848-31.113v-245.007l-256.265-436.115c0 0 92.687-77.647 365.315-77.647 260.272 0 346.044 72.231 346.044 72.231l-250.668 441.53z" horiz-adv-x="725" />
<glyph unicode="&#xe625;" d="M680.602 281.728c63.21 0 89.052 24.32 89.847 51.936 1.251 36.936-42.093 78.665-100.144 78.665-91.711 0-158.49-108.418-158.49-108.418 35.345-13.478 103.781-22.183 123.329-22.183h45.457zM218.114 281.728c19.637 0 88.074 8.706 123.327 22.183 0 0-66.778 108.418-158.49 108.418-57.958 0-101.303-41.73-100.144-78.665 0.886-27.616 26.639-51.936 89.847-51.936h45.459zM419.741 837.951c-299.544 0-409.37-166.467-409.37-166.467s33.275-76.529 156.419-83.188c0 0 99.895 99.893 256.338 99.893h3.545c156.443 0 256.314-99.893 256.314-99.893 123.056 6.659 156.353 83.188 156.353 83.188s-109.826 166.467-409.371 166.467h-10.228zM430.22 485.131c352.843 0 419.417 83.188 419.417 83.188s39.866-475.967-176.399-549.222c0 0-69.891-23.252-109.826 46.616-39.958 69.869-93.235 166.468-136.465 166.468h-0.546c-43.23 0-96.507-96.599-136.463-166.468-39.936-69.868-109.827-46.616-109.827-46.616-216.356 73.255-176.399 549.222-176.399 549.222s66.574-83.188 419.418-83.188h7.091z" horiz-adv-x="853" />
<glyph unicode="&#xe626;" d="M745.851 464.492l3.458 0.068c47.039 2.196 51.485 48.556 51.553 49.034 0.137 1.923-1.125 3.644-2.98 4.256-0.41 0.123-0.8 0.123-1.21 0.123-1.534 0-2.93-0.732-3.714-2.060-0.137-0.188-14.783-24.407-45.252-26.945-1.789-0.067-3.458-0.135-5.127-0.135-27.675 0-45.626 18.973-45.763 19.159-0.869 0.869-1.993 1.345-3.202 1.345-0.666 0-1.398-0.135-2.062-0.476-1.652-0.92-2.521-2.862-1.992-4.717 0.135-0.41 12.448-39.649 56.288-39.649zM606.464 434.554l-79.365-10.184-3.185 20.164-516.937-70.050-6.711 46.836 516.052 70.647-3.458 21.953 55.948 9.18c0 0 10.185-24.407 44.776-24.407 33.075 0 70.731 41.711 70.731 41.711l-23.895 67.188 49.033-56.407c4.326 1.516 8.977 2.86 14.034 3.985l9.18 81.954 21.494-79.297c4.463-0.205 9.112-0.596 13.914-1.329l32.787 63.271-6.115-69.982c2.794-1.005 5.654-2.128 8.585-3.338 15.701-6.574 31.27-19.959 49.237-18.563 16.418 1.277 24.747 8.788 31.729 22.685 1.652 3.338 3.050 17.304 3.050 17.304 44.655-51.026 136.387 59.015 136.387 59.015-55.811-229.652-180.755-376.547-340.951-376.547-122.813 0-150.166 104.98-150.166 104.98s44.384-6.267 73.847 14.102c29.551 20.352 11.191 51.895 0 65.128z" />
<glyph unicode="&#xe627;" d="M698.252 241.514l21.253-24.298 84.965 103.151-1.522 45.464-104.695-124.317zM149.084 503.918l-57.687 10.615 145.633-279.13c0 0 51.575-30.324 45.551 30.345l-133.497 238.17zM598.081 617.684l-45.462 45.549-27.278-430.897c0 0 5.96-57.602 51.488-45.529l21.251 430.877zM167.27 165.554l-166.886 309.475 45.549 121.424 130.429-27.278 130.517-230.622 12.071 327.66 154.813 148.702 178.959-166.886-18.272-351.957 109.351 121.335 106.131 9.18 9.178-112.331-82.007-109.177 30.345-6.047c0 0 72.806-45.549 72.806-84.966 0-39.503-42.395-42.569-42.395-42.569s-115.376-18.097-170.018-2.98c-54.557 15.14-130.43 9.093-218.462-18.186-87.946-27.365-142.502-3.045-206.304 27.279-63.734 30.345-221.442 12.158-221.442 12.158s-24.298 54.557 139.522 54.557c0 0 9.093 18.249 6.113 21.229z" horiz-adv-x="896" />
<glyph unicode="&#xe628;" d="M376.202 664.829v0c-0.463 0-0.782 0-1.246 0-0.346 0-0.778 0-1.242 0v0c-19.203 1.246-32.536 16.947-32.536 48.241 0 32.621 33.78 77.363 33.78 77.363s33.896-44.742 33.896-77.363c0-31.293-13.449-46.996-32.652-48.241zM479.246 719.171c-2.487 24.149-3.615 48.328-14.575 82.106-10.846 33.896-45.203 73.777-88.468 73.777-43.498 0-77.392-39.881-88.238-73.777-10.844-33.778-12.088-57.957-14.461-82.106-2.487-24.177-16.831-131.734 102.815-131.734 119.644 0 105.3 107.558 102.927 131.734zM508.6 799.137c7.231-26.895 9.487-48.587 11.308-67.791l0.898-9.803c2.256-21.373 9.052-86.328-32.536-132.516-20.678-22.934-49.251-36.381-84.622-41.009v-72.417c258.927 0 323.796-112.761 323.796-112.761 60.995 109.812-3.065 274.632-73.226 344.793-70.248 70.161-145.616 91.505-145.616 91.505zM650.054 368.941c-131.272-33.548-246.289-390.661-246.289-390.661v456.195c180.639 0 246.289-65.534 246.289-65.534zM98.534 707.632c-70.277-70.161-134.337-234.981-73.342-344.793 0 0 64.869 112.761 323.912 112.761v72.417c-35.369 4.628-64.060 18.075-84.738 41.009-41.588 46.188-34.676 111.143-32.536 132.516l1.012 9.803c1.707 19.203 4.077 40.895 11.308 67.791 0 0-75.484-21.344-145.616-91.505zM348.872 434.475v-456.195c0 0-115.017 357.113-246.173 390.661 0 0 65.65 65.534 246.173 65.534z" horiz-adv-x="768" />
<glyph unicode="&#xe629;" d="M976.019 314.901c0 0-182.869-51.942-343.177-51.942-160.36 0-433.577 81.307-433.577 207.703 0 126.517 255.186 112.963 255.186 112.963s137.865-3.93 157.897-67.565c22.441-71.308-49.534-94.998-49.534-94.998s180.664-2.273 180.664 92.537c0 94.862-221.326 121.969-298.103 121.969-76.795 0-444.807-9.076-444.807-216.779 0-204.576 356.799-275.475 516.507-275.475 294.636 0 458.943 171.588 458.943 171.588zM503.455 669.7c-5.009 0.189-10.085 0.258-15.162 0.258-191.945 0-270.996-20.835-270.996-20.835s67.772 60.899 289.097 60.899c221.257 0 517.038-88.008 517.038-257.391s-392.914-158.034-392.914-158.034c0 0-202.44 11.895-302.053 72.248-156.377 94.93 4.803 167.639 4.803 167.639 53.687 25.040 125.662 15.23 125.662 15.23s-79.051-36.116-79.051-83.529c0-47.398 151.351-72.3 241.683-72.3 88.861 0 207.84 29.039 216.66 83.186 26.441 162.77-334.766 192.63-334.766 192.63z" />
<glyph unicode="&#xe62a;" d="M329.417 258.185h-101.951c-31.131-64.495-22.878-168.54-22.878-168.54s-72.82 97.814-72.82 212.251c0 114.437 81.191 228.874 81.191 228.874 18.739 8.276 81.096 10.392 81.096 10.392s-47.85 101.953-135.199 74.842c-87.444-26.993-114.437-124.807-114.437-124.807 37.478 22.878 118.574 27.087 118.574 27.087s-74.959-87.444-74.959-212.25c0-124.831 141.548-305.855 141.548-305.855s-228.898 45.732-228.898 416.154c0 367.13 286.199 435.717 333.788 436.915h2.282c43.733 0 334.988-66.587 334.988-437.009 0-370.328-228.898-416.154-228.898-416.154s141.548 181.024 141.548 305.949c0 124.805-74.959 212.25-74.959 212.25s81.096-4.209 118.574-27.087c0 0-26.993 97.814-114.437 124.807-87.349 27.11-135.199-74.842-135.199-74.842s62.356-2.116 81.096-10.392c0 0 81.191-114.531 81.191-228.968s-72.82-212.157-72.82-212.157c0 0 8.253 104.045-22.878 168.54h-115.543z" horiz-adv-x="672" />
<glyph unicode="&#xe62b;" d="M102.084 403.322c-12.612-27.808 22.316-24.632 39.632-34.657 11.356-6.526 21.751-14.433 28.105-25.494 7.39-12.981 19.14-36.948 20.765-49.166 0 0 39.929 12.981 58.329 60.621 0 0 63.773-4.632 87.641 1.526 23.77 6.159 38.303 16.184 38.303 16.184-28.401-1.551-58.303 3.842-58.303 3.842s17.686 43.008 48.771 70.521c48.205 42.54 162.128 33.772 180.603-33.77 5.492-20.297-2.784-54.83-15.863-71.187-12.145-15.124-29.559-26.085-45.52-36.775-34.534-22.982-71.409-35.495-111.338-45.594-48.205-12.317-111.213-9.238-111.213-9.238s-64.56-30.691-123.752-50.323c-35.692-11.749-62.442-39.83-74.561-76.605 2.217 0 76.877 67.074 189.544 58.796 26.184-1.922 53.501-6.453 79.389-0.765 63.034 13.67 69.463 52.145 93.824 64.364 33.77 16.848 73.305 33.772 111.312 20.125 56.088-20.125 60.718-81.606 31.85-122.988-6.627-9.51-17.219-23.18-31.087-26.259 0 0 12.513-21.159 13.278-34.534 1.649-31.676-30.1-73.231-64.833-61.013-20.222 7.217-28.401 34.164-23.671 53.304 2.784 11.158 8.844 17.906 20.002 20.789 25.987 6.552 39.929-12.315 39.929-12.315-3.081 21.455 3.57 43.5-41.185 53.6-41.851 9.433-65.99-9.139-92.542-9.040-39.955 0.079-64.488 0-107.397 5.27-45.027 5.69-110.746-6.823-133.825-16.060-14.928-5.961-43.107-18.080-48.502-37.047-11.947-41.849 78.503-5.492 90.056-2.883 50.224 11.061 97.469 11.824 148.949 12.317 27.145 0.196 61.483-1.553 84.39-4.902 3.178-56.678 21.652-70.448 65.423-84.982-2.217-4.309-4.335-8.743-6.552-13.078-8.844-17.712-52.615 0.393-64.561 4.040-27.414 8.375-56.284 14.237-84.857 15.887-43.87 2.586-86.212-1.823-130.181-0.763 0 0-29.829 0.86-129.613-4.533-32.613-1.823-48.969 7.021-56.187 19.731-21.084 37.146 8.745 68.009 8.745 68.009-3.447 1.454-40.224 19.065-18.475 58.428 31.751 57.342 83.036 77.64 128.654 120.352 0 0 5.001 21.552-4.040 45.421-8.177 21.455-26.085 28.203-44.559 37.809-11.725 6.257-26.158 14.14-32.046 26.75-16.527 35.988 40.052 76.508 60.546 98.529 0 0-45.053 66.58-45.053 149.516 0 138.088 111.904 249.991 249.894 249.991 138.161 0 249.965-111.903 249.965-249.991 0-76.778-68.599-129.22-68.599-129.22-57.245 17.613-101.903 7.12-137.694-14.433-65.029-39.141-80.916-103.528-80.916-103.528-50.422 7.61-106.016 35.125-138.825 67.934 0 0-39.462-36.553-42.146-42.515z" horiz-adv-x="597" />
<glyph unicode="&#xe62c;" d="M454.825 632.692c10.271 20.564 25.521 34.522 26.979 66.647 0 0-113.553-4.676-107.96-101.897 0 0 56.917-12.855 80.981 35.249zM542.481 32.523c0 0-4.489-6.509-8.342-9.165-6.627-4.325-13.771-4.041-13.771-4.041h-38.845c0 0-15.041-23.782-55.979-23.782-40.96 0-58.209 25.897-58.209 25.897s-45.261-4.325-64.719 8.624c-6.511 4.301-12.291 16.804-12.291 16.804s2.562 8.342 3.103 9.634c2.115 5.499 2.396 11.022 3.5 16.896 0.729 3.668 0.543 7.238 2.116 10.646 1.362 2.937 5.146 6.793 7.895 9.071 2.468 1.927 6.321 5.241 9.071 7.074 6.252 4.041 12.597 6.345 18.377 11.022 6.040 4.864 17.531 16.073 17.531 16.073l-3.596 4.77c0 0-8.881-5.968-10.175-6.885-5.968-4.606-11.209-9.001-18.094-12.22-6.793-3.22-21.292-11.375-21.292-11.375s-2.843 3.22-4.582 5.876c-3.031 4.489-6.791 7.989-9.376 12.855-1.362 2.749-8.812 10.998-8.812 10.998l-2.845-3.572c0 0 7.897-16.614 8.366-19.929 0.543-3.384 4.301-10.74 3.666-13.935-2.56-12.761-4.958-20.751-6.25-33.7-0.541-5.874-2.186-10.644-2.186-10.644s-77.573 2.115-103.47 21.478c-25.781 19.458-32.314 51.77-32.314 51.77s6.533 15.065-15.039 15.065c-21.574 0-38.845 15.039-38.845 15.039-88.385 107.866-86.199 228.586-86.199 228.586l32.312 32.312c0 0 12.948 21.574 4.325 32.314-8.625 10.832-8.625 15.063-8.625 36.637 0 21.572 12.925 38.822 12.925 38.822 86.199 122.812 176.722 135.76 176.722 135.76s-83.99-75.365-83.99-245.647c0-170.281 125.022-267.313 269.43-267.313 144.384 0 204.78 79.689 204.78 79.689s99.147 137.969 40.962 191.855c-58.211 53.885-53.886 120.719-53.886 120.719-8.648 0-30.198-12.948-30.198-12.948-15.063 8.719-30.222 30.198-30.222 30.198-23.665-32.312-51.676-40.938-51.676-40.938l-17.249 12.926c-17.273-36.613-45.261-68.927-45.261-68.927-15.159-6.509-34.522 4.231-34.522 4.231-12.948-40.96 17.273-94.846 17.273-94.846-17.273-8.53-40.962-2.186-60.419 17.273-19.364 19.458-34.427 30.196-49.562 15.039-15.063-15.039-6.439-38.728-6.439-38.728-12.925 2.115-32.288 12.855-32.288 12.855-8.648-17.179-8.648-49.562-8.648-49.562-122.906 62.51-36.709 133.738-36.709 133.738 2.21 53.886 6.511 83.99 43.146 103.448 36.613 19.364 49.563 34.429 43.146 51.678-6.533 17.271-14.428 42.064 1.457 58.844 25.24 26.813 97.667 25.262 119.24 100.721 21.574 75.436 79.783 86.199 79.783 86.199-10.834-34.521 21.478-99.147 60.302-71.158 38.845 28.083 107.771 28.083 107.771 28.083-30.104-51.772-19.364-88.385-19.364-88.385 51.676 32.312 133.67-25.897 140.085-36.637 6.509-10.834 10.834-38.822 17.249-45.355 6.438-6.415 17.271-30.104 4.323-32.312-12.948-2.186-19.364-17.249 0-30.104 19.458-13.020 12.948-47.447 19.458-62.51 6.439-15.135 28.013-34.522 25.803-64.72-2.115-30.198-23.687-40.938-21.572-60.396 2.208-19.364-2.115-116.396-2.115-116.396-15.159 32.314-64.72 58.281-64.72 58.281s56.095-51.77 56.095-101.333c0-49.679-99.147-92.73-99.147-92.73-23.782-43.146-62.51-69.021-62.51-69.021s-45.261 2.21-64.719-6.439c-17.249-7.707-29.469-27.353-31.867-31.56 0 0-11.469 18.447-4.864 56.636 0 0-24.417-28.083-14.406-59.221z" horiz-adv-x="853" />
<glyph unicode="&#xe62d;" d="M780.076 454.865l-98.307-199.41h194.381l-96.073 199.41zM150.144 641.366l-98.287-199.41h194.295l-96.009 199.41zM639.578 263.691l98.372 187.609c-84.316 16.452-124.143 53.982-159.218 82.167-35.162 28.1-72.69 16.386-72.69 16.386l18.807-234.549h86.682l-32.799-79.8h-63.297v-107.897h86.68l35.098-84.471h-372.32l39.805 84.471h79.654v107.897h-56.248l-35.096 84.471h88.979l14.056 269.778c0 0-46.853 13.995-86.68 11.713-39.74-2.302-100.651 7.042-100.651 7.042l86.595-164.183c0 0 5.25-9.411 5.25-28.186 0 0-45.076-96.164-150.412-96.164-105.315 0-149.891 89.122-149.891 103.226 0 7.627 7.050 21.123 7.050 21.123l107.766 206.45c0 0-16.444 13.431-16.444 33.968 0 0.174-2.277 52.808 51.519 52.808 53.818 0 51.517-51.613 51.517-51.613s49.154-21.144 91.346-9.344c42.126 11.713 114.727 25.708 114.727 25.708v44.573l44.491 63.326 46.853-65.608v-58.655c30.435 0 105.337-44.571 147.528-96.184 42.126-51.613 91.344-70.39 91.344-70.39s18.72 30.49 46.855 30.49c28.047 0 49.067-23.426 49.067-49.329 0-25.709-18.72-39.813-18.72-39.813l110.065-208.821c0 0 4.664-8.149 4.664-21.057 0 0-39.74-98.553-147.441-98.553-107.699 0-152.19 86.839-152.19 103.224 0 11.127 9.329 28.187 9.329 28.187z" horiz-adv-x="939" />
<glyph unicode="&#xe62e;" d="M473.731 303.196c49.981 0 79.358 23.528 79.358 23.528l67.663-255.669h132.198l-85.185 64.626-32.346 296.922 49.959 73.423 105.767-432.002h146.934l-91.035 55.808-70.542 611.28-161.666-155.75-55.808 196.915-67.596-202.742h-44.111l-67.594 202.742-55.81-196.915-161.666 155.75-70.542-611.28-91.124-55.808h146.934l105.767 432.002 50.048-73.423-32.346-296.922-85.274-64.626h132.287l67.574 255.669c0 0 29.377-23.528 79.358-23.528h8.796z" horiz-adv-x="939" />
<glyph unicode="&#xe62f;" d="M511.886 227.538c-73.725 40.513-137.325 101.216-137.325 101.216l-151.851-50.56-18.76 53.458 146.036 54.963c-1.487 18.76-2.898 57.786-2.898 57.786l-124.378 47.739c-25.986-40.438-78.128-2.898-78.128-2.898l-143.119 108.498c0 0 146.036-4.384 190.858-8.713 44.839-4.309 41.941-43.334 41.941-43.334l112.826-41.924-1.505 156.16c0 0 49.225-76.698 85.354-76.698s80.949 76.698 80.949 76.698h0.154c0 0 44.82-76.698 81.024-76.698 36.11 0 85.335 76.698 85.335 76.698l-1.487-156.16 112.749 41.924c0 0-2.821 39.025 42.018 43.334 44.822 4.328 190.858 8.713 190.858 8.713l-143.138-108.498c0 0-52.123-37.54-78.109 2.898l-124.378-47.739c0 0-1.411-39.026-2.898-57.786l146.036-54.963-18.76-53.458-151.851 50.56c0 0-63.601-60.703-137.4-101.216h-0.154z" />
<glyph unicode="&#xe630;" d="M350.049 325.489c-47.816 0-66.264 49.294-66.264 49.294l114.824 89.323c26.506-63.843-0.714-138.617-48.559-138.617zM870.969 189.141l-174.382 206.687 41.932 79.209-28.679 48.372 57.385 61.573-26.425 55.078 125.823 204.52-167.862-107.778 39.759 129.746-320.032-303.535 19.775 178.118-70.506-153.88-22.159 96.742-44.105-171.516-35.306 68.173-15.426-112.215-94.944-149.55-156.756-173.681 41.932-92.412 15.426 54.972 46.386-13.203v24.239l33.131-8.766 8.801 35.169 37.48-19.803 11.079 50.537 59.637-43.935-44.211-2.272v-30.734l-48.559 4.437 15.426-30.839-46.279 19.802-4.454-39.605-55.185 6.601-15.426-43.935 13.253-28.674 189.889 30.839 141.222 105.613v-72.609l33.026-33.004 24.438 26.404 21.948 11.036-6.627 48.372 79.517 19.802-30.958 43.936 92.77 94.577 258.246-72.611z" horiz-adv-x="876" />
<glyph unicode="&#xe631;" d="M753.37 498.601l-76.575-216.837c0 0 14.459-14.461 38.991-15.869l18.828 53.451c0 0 182.071-15.867 215.359-41.88 0 0-23.142-47.746-53.524 10.092 0 0-47.674-66.504 1.481-105.494 49.154-39.066 114.159-20.236 125.73 4.296 0 0-47.747 2.888-59.3 27.511-11.5 24.532 1.48 34.678 11.552 37.583 10.163 2.889 44.86 8.593 44.86 37.584 0 28.829-62.206 77.984-245.685 147.376l17.347 46.249c0 0-14.531 15.939-39.064 15.939zM506.223 473.491c0 0 93.925-13.466 138.764-25.020l-59.226 57.315c0 0-35.183-18.756-79.537-32.295zM477.305 469.684c-179.255 14.459-281.844 117.065-281.844 117.065 93.925-199.419 281.844-117.065 281.844-117.065zM0.34 693.724c0 0 67.91-49.155 231.226-53.524l-24.55-27.438c0 0 164.794-138.764 381.561-63.597l127.21-95.403-40.472-112.698c0 0-164.722-8.736-348.346 79.481-183.55 88.148-280.363 183.552-326.629 273.179z" />
<glyph unicode="&#xe632;" d="M680.381 538.478c-22.456 115.152-72.008 196.535-72.008 196.535l-152.136-433.12c0 0 11.117-3.265 26.161-10.554l197.982 247.139zM688.602 364.77c1.545 20.811 2.405 42.851 2.405 66.067 0 23.388-1.62 46.189-4.32 68.055l-178.592-223.456c13.228-9.597 30.112-23.487 40.175-38.924l140.332 128.258zM343.885 120.035c-56.178 0-73.627-50.826-73.627-50.826-79.295 43.047-144.577 116.966-144.577 116.966 0.66 9.67 2.674 18.604 5.472 26.752l-123.863 103.813c13.032-100.844 39.021-160.285 39.021-160.285s109.090-79.369 221.542-102.487c0 0-6.724-92.599 72.668-92.599h9.965c79.295 0 72.668 92.5 72.668 92.5 112.452 23.217 221.542 102.489 221.542 102.489s25.989 59.44 39.021 160.382l-123.863-103.813c2.797-8.247 4.809-17.179 5.473-26.752 0 0-65.283-74.018-144.676-116.966 0 0-17.352 50.826-73.528 50.826h-3.239zM208.608 291.339c15.044 7.388 26.161 10.554 26.161 10.554l-152.136 433.12c0 0-49.551-81.382-72.006-196.535l197.98-247.139zM142.737 236.512c10.063 15.51 26.947 29.327 40.175 38.924l-178.495 223.456c-2.797-21.866-4.417-44.667-4.417-68.055 0-23.216 0.86-45.256 2.405-66.067l140.332-128.258zM92.597 840.764h505.813l-188.484-568.593h-128.845l-188.484 568.593z" horiz-adv-x="704" />
<glyph unicode="&#xe633;" d="M481.712 710.397c0 0 92.249-9.644 171.979-39.851 0 0 11.324 8.346 16.108 22.547 0 0-8.143-47.894-4.581-93.827 4.175-53.874 28.426-120.777 102.303-124.162 91.435-4.275 96.626 109.249 96.626 109.249s16.898-35.68 14.71-73.571c-1.195-22.064-13.539-44.025-25.168-62.222-24.533-38.477-60.032-64.307-74.156-109.554-14.404-46.316-23.438-94.235-28.324-142.333-3.181-30.333-4.963-60.948-4.861-91.46 0.183-29.926 2.29-58.556 6.463-84.004l-163.835-33.592c0 0-2.19 71.357-65.198 75.633 0 0 0 149.127 37.866 266.824 0 0 102.989 27.332 105.076 145.031 0 0-121.974-27.332-199.718-42.042l-27.636-100.902-27.23 100.902c-77.846 14.71-199.718 42.042-199.718 42.042 2.086-117.699 105.074-145.031 105.074-145.031 37.868-117.697 37.868-266.824 37.868-266.824-63.010-4.275-65.096-75.633-65.096-75.633l-163.939 33.592c4.175 25.448 6.185 54.077 6.362 84.004 0.102 30.512-1.577 61.128-4.657 91.46-5.064 48.097-14.022 96.017-28.425 142.333-14.124 45.247-49.625 71.078-74.259 109.554-11.629 18.196-23.869 40.158-25.168 62.222-2.087 37.891 14.71 73.571 14.71 73.571s5.292-113.524 96.626-109.249c73.876 3.384 98.231 70.287 102.403 124.162 3.487 45.933-4.581 93.827-4.581 93.827 4.683-14.201 16.109-22.547 16.109-22.547 79.729 30.206 171.979 39.851 171.979 39.851 12.623 111.336 41.94 172.387 41.94 172.387s30.334-61.152 42.346-172.387z" horiz-adv-x="896" />
<glyph unicode="&#xe634;" d="M671.43 674.427h-128.749l4.221-54.647h128.727l-4.198 54.647zM269.802 619.78h128.727l4.221 54.647h-128.749l-4.198-54.647zM395.744 510.654l1.393 46.251h-128.749l-39.224-454.885 14.010-7.006-8.313-30.826h-96.614c0 0-7.004 23.822 11.225 39.224l41.946 454.799h-135.753v60.239h141.367l5.591 54.564h-135.733c0 0-21.016 5.613-21.016 25.235v25.131h-25.235c0 0-19.538 4.198-19.538 21.014v44.752c0 0 97.922-48.951 440.789-48.951h61.568c342.951 0 440.938 48.951 440.938 48.951v-44.752c0-16.816-19.601-21.014-19.601-21.014h-25.235v-25.131c0-19.622-21.016-25.235-21.016-25.235h-135.733l5.591-54.564h141.367v-60.239h-135.753l41.946-454.799c18.229-15.403 11.225-39.224 11.225-39.224h-96.616l-8.313 30.826 13.926 7.006-39.139 454.885h-128.749l1.393-46.251h-153.943z" horiz-adv-x="960" />
<glyph unicode="&#xe635;" d="M757.528 323.542c75.312-90.837 178.904-125.449 178.904-125.449-161.544-102.218-312.088-5.569-312.088-5.569 81.758 24.218 63.109 150.518-68.759 150.518-131.895 0-100.408-135.624-100.408-135.624-128.136-76.163-211.789-236.034-211.789-236.034-102.218 187.708 0 321.524 0 321.524 24.218-66.949 139.382-100.383 139.382 46.378 0 146.786-141.219 105.977-141.219 105.977-65.028 141.191-241.574 206.22-241.574 206.22 169.167 100.381 319.576-1.81 319.576-1.81-48.326-14.893-61.271-126.437 68.786-126.437s104.029 130.084 104.029 130.084c0 0 107.758 20.46 209.979 228.628 0 0 113.354-165.438 3.756-319.603 0 0-20.46 55.732-70.596 55.732-50.163 0-76.19-65.056-76.19-92.894 0-27.866 26.027-126.437 98.46-126.437 0 0 25.918-3.621 40.922 22.297 0 0 15.441-45.226 58.83-97.502z" horiz-adv-x="942" />
<glyph unicode="&#xe636;" d="M441.772 131.315h146.319v170.979h-146.319v-170.979zM441.772 329.066h146.319v170.882h-146.319v-170.882zM411.561 302.294h-146.417v-170.979h146.417v170.979zM411.561 499.948h-146.417v-170.882h146.417v170.882zM456.731 821.47c17.096-11.054 34.657-15.082 48.167-36.082 14.025-21.886 10.856-46.645 10.856-46.645h72.926c0 0 48.068-60.153 89.702-106.673 68.111-76.095 174.81-53.939 174.81-53.939l-21.885-58.337h-171.447v-397.592h51.041c0 0 12.773-23.997 12.773-42.689 0-18.814-13.165-42.911-13.165-42.911h-19.185l-30.8-51.238h-467.842l-30.776 51.238h-19.209c0 0-13.14 24.096-13.14 42.911 0 18.691 12.87 42.689 12.87 42.689h50.942v397.592h-171.372l-21.861 58.337c0 0 106.576-22.156 174.713 53.939 41.731 46.52 89.701 106.673 89.701 106.673h72.926c0 0-3.168 24.759 10.832 46.645 13.534 21.001 31.097 25.028 48.167 36.082 25.521 16.481 30.041 60.153 30.041 60.153s4.692-43.672 30.211-60.153z" horiz-adv-x="853" />
<glyph unicode="&#xe637;" d="M267.274 518.692c-39.931 0-72.303-32.398-72.303-72.303 0-40.032 32.372-72.404 72.303-72.404 40.006 0 72.378 32.372 72.378 72.404 0 39.905-32.372 72.303-72.378 72.303zM265.392 896.081l87.622-338.737h64.242v-105.178h56.405v56.506h80.466v-534.351h-553.588v530.434h74.061v-108.995h66.125v161.584h40.912l83.755 338.737z" horiz-adv-x="555" />
</font>
</defs>
</svg>
